<?xml version="1.0" standalone="no"?>
<!DOCTYPE svg PUBLIC "-//W3C//DTD SVG 1.1//EN" "http://www.w3.org/Graphics/SVG/1.1/DTD/svg11.dtd" >
<svg xmlns="http://www.w3.org/2000/svg">
<metadata>
This is a custom SVG webfont generated by Font Squirrel.
Copyright   : Copyright c ShyFonts Type Foundry 2000 All rights reserved
Designer    : ShyFonts Type Foundry
Foundry URL : httpwwwshyfontscom
</metadata>
<defs>
<font id="webfontlGP8gX7b" horiz-adv-x="1341" >
<font-face units-per-em="2048" ascent="1638" descent="-410" />
<missing-glyph horiz-adv-x="569" />
<glyph unicode=" "  horiz-adv-x="569" />
<glyph unicode="&#x09;" horiz-adv-x="569" />
<glyph unicode="&#xa0;" horiz-adv-x="569" />
<glyph unicode="!" horiz-adv-x="501" d="M84 63l8 68q0 20 2 39q6 35 39 74q34 40 68 30q57 0 63 -90q-4 -63 -22 -118q-51 -63 -105 -76q-57 1 -53 73zM133 530q-4 68 8 211q37 80 74 344q37 109 57 209q43 86 117 74q47 0 53 -78q-6 -57 -41 -239q-55 -174 -57 -215q-4 -80 -61 -277q-23 -86 -95 -98 q-63 6 -55 69z" />
<glyph unicode="&#x22;" horiz-adv-x="905" d="M215 1059q10 51 10 92q0 57 -4 70q0 49 33 88q31 37 82 55q70 -14 59 -147q14 -35 8 -109q-6 -72 3 -92q-4 -35 -5 -72q-6 -49 -47 -88q-39 -37 -69 -27q-49 3 -49 62q-11 23 -21 168zM516 963q12 213 39 290q6 119 117 125q35 2 50 -22.5t11 -77.5q-18 -129 -33 -305 q-20 -88 -104 -94q-33 -2 -53.5 19.5t-26.5 64.5z" />
<glyph unicode="#" horiz-adv-x="1613" d="M100 977q-6 106 107 131q37 18 121 35q76 6 157 2q0 152 123 158q20 4 31.5 -13.5t13.5 -58.5q0 -8 4 -53q254 27 390 71q-12 154 108 158q66 -6 74 -76q-10 -10 -12 -82q12 2 178 17q59 0 55 -66q15 -95 -92 -123q-57 0 -152 2q6 -180 -14 -407l131 35q39 18 96 22 q63 -6 58 -72q-10 -78 -103 -133q-80 0 -176 -2l4 -137q-8 -63 -8 -86q-2 -45 -39 -74q-35 -29 -70 -24q-41 0 -59 53q3 22 -12 209l-371 -6q-43 -197 -31 -207q-8 -63 -36.5 -95t-79.5 -30q-47 6 -50 90l-16 203q11 -11 -43 -30q-18 -6 -45 -13q-37 -4 -109 -8 q-49 0 -49 53q-6 121 92 133q33 27 203 51q-18 160 -8 328q-74 10 -160 -4q-92 -6 -151 -23q-54 13 -60 72zM608 606q94 31 463 105l-57 344q-66 -25 -383 -62q20 -129 -23 -387z" />
<glyph unicode="$" horiz-adv-x="1429" d="M176 924q-20 127 119 270q109 68 264 100l62 258q33 111 104 123q63 -8 57 -65q2 -55 -22 -144q-18 -70 -25 -147q20 2 44 3t52.5 2t42.5 1q12 90 66 225q16 109 98 115q18 6 35 -12q16 -20 21 -51q-8 -57 -19 -152q-23 -80 -28 -158q276 -92 307 -256q-8 -51 -84 -162 q-61 -45 -160 -83q-20 -20 -29 -21q-61 2 -51 61q-9 61 68 111l25.5 20.5l22.5 17.5l17 13t13.5 10.5l9.5 7.5t5 4q-42 53 -202 81q-20 -180 -98 -412q279 -68 297 -305q-31 -164 -135 -250q-127 -61 -279 -74q-49 -63 -98 -243q-25 -66 -84 -56q-37 -2 -56.5 16.5 t-17.5 57.5q-2 29 21 131q23 45 49 119q-72 6 -137 26q-16 -78 -33 -176q-35 -88 -58 -159q-41 -98 -96 -80q-35 -4 -52 14.5t-19 56.5l61 211q12 115 63 226q-22 9 -24 30q6 51 41 99l61 295q-278 117 -219 301zM326 971q-12 -82 131 -148l20 310q-29 -33 -82 -64 q-79 -55 -69 -98zM502 303q70 -16 129 -16q16 98 59 270q-33 -2 -135 10q-33 -121 -53 -264zM594 760q66 14 160 -29q27 199 88 389q-39 20 -82 17q-31 -4 -66 0q-8 -33 -100 -377zM811 279q123 12 186 57v2q6 94 -135 164q-14 -68 -27.5 -124z" />
<glyph unicode="%" horiz-adv-x="1554" d="M158 907q-25 158 102 310q104 166 215 151q154 -18 232 -127q82 -115 100 -225q-18 -127 -98 -273q-95 -83 -252 -79q-119 -6 -232 38q-81 99 -67 205zM299 12q0 18 20 58q102 172 312 643q256 272 389 540q61 100 49 113q59 74 111 90q27 0 47 -20q22 -22 18 -56 q-8 -100 -323 -551q-160 -432 -437 -766q32 6 -15 -65q-3 -4 -5 -8q-39 -61 -94 -56q-25 -6 -49 19q-23 22 -23 59zM322 985q-14 -63 47 -102q49 -29 127 -45q45 -2 98 26q49 28 37 92q6 74 -72 136q-59 55 -137 79q-118 -73 -100 -186zM741 307q-2 49 21 139q49 96 80 146 q49 39 71 39q12 0 17 -2q31 125 162 102q147 3 227 -104q94 -78 78 -232q6 -133 -123 -274q-127 -139 -293 -111q-88 -20 -174 74q-86 92 -66 223zM901 352q8 -51 57 -116q47 -63 103 -48q76 12 123 54q45 39 30 125q6 82 -38 120q-66 47 -138 41q-14 0 -26 -4q-16 -6 -35 2 q-6 -25 -39 -71t-37 -103z" />
<glyph unicode="&#x26;" horiz-adv-x="1556" d="M188 299q0 168 86 254q100 96 242 137q-262 154 -315 393q12 40 49 105q113 180 395 180q260 -12 584 -115q-4 113 76 119q31 2 55 -22.5t18 -55.5q-4 -41 -61 -190l-86 -158q-45 -57 -98 -69q-68 6 -58 73q-12 47 58 142q-258 98 -566 77q-170 -31 -192 -96 q12 -78 274 -196q223 -31 428 -138q35 -14 47 -55q-3 -43 -30 -86q-29 -45 -90 -39q-23 -4 -78 0q-53 2 -82 12q-133 0 -277 -47q-203 -92 -205 -149q6 -45 35 -68q101 -104 412 -110q102 -8 256 14q37 246 160 264q22 -12 43 -31q18 -16 16 -53q0 -27 -10 -69 q-33 -92 -90 -199q-16 -74 -74 -107q-72 -27 -213 -34l-72 16q-270 0 -415 51q-195 70 -222 250z" />
<glyph unicode="'" horiz-adv-x="585" d="M190 1221q2 53 39 90t74 43q82 0 76 -152q-4 -25 -4 -92q2 -35 2 -92q2 -47 -4 -78q-6 -39 -35 -78q-27 -35 -86 -28q-39 4 -47 63q-8 20 6 162q-14 43 -14 92q-1 52 -7 70z" />
<glyph unicode="(" horiz-adv-x="724" d="M90 621q34 197 98 399q37 201 197 287q20 53 59 59q31 -4 50 -25q20 -23 22 -67q-8 -41 -31 -82q-104 -135 -133 -223q-74 -102 -69 -281q12 -157 73 -258q12 -51 150 -252q12 -35 12 -63q-6 -45 -37 -86q-35 -47 -75 -33q-23 -4 -52 18q-135 63 -190 285 q-41 144 -74 322z" />
<glyph unicode=")" horiz-adv-x="729" d="M195 1161q12 59 8 88q6 47 33 88q29 45 79 33q31 4 58 -12q125 -84 194 -271q51 -182 56 -358q-25 -168 -72 -381q-70 -150 -199 -282q-39 -57 -71 -68q-31 4 -50 27q-16 23 -26 63q6 37 43 88q86 141 141 209q29 98 49 281q-20 141 -65 290q-16 35 -178 205z" />
<glyph unicode="*" horiz-adv-x="1091" d="M92 453q2 39 37 75q47 63 154 134q86 70 161 149l9 14q-82 33 -240 181q-43 8 -45 45q10 41 39 79q31 41 63.5 41t225.5 -137q-27 61 -15 164q-35 199 90 211q33 2 52.5 -19.5t29.5 -62.5q-4 -59 -20 -332q53 20 149 92q106 76 160 99q31 4 45 -15.5t17 -62.5 q-6 -46 -99 -147q-72 -35 -141 -89q125 -78 131 -116q92 -68 94 -127q-6 -35 -28 -74q-22 -37 -74 -37q-23 -4 -49 14q-84 63 -213 197q-14 -37 -15 -141q10 -160 -24.5 -238t-114.5 -69q-35 12 -37 108l-11 138q-3 50 -5 79q-51 -90 -117 -149q-104 -82 -141 -90 q-33 0 -51 26q-19 35 -17 60z" />
<glyph unicode="+" horiz-adv-x="921" d="M68 694q4 41 26 78q27 41 86 53q33 4 94 -2q66 -6 78 0v19v84q0 53 -6 75q0 45 39 82q41 39 84 56q66 -12 84 -160q-16 -25 -23 -158q63 0 134 2q18 2 58 5t60 6q100 -16 101 -80q-12 -80 -99 -127q-111 6 -223 18q-41 -18 -53 -96t-10 -92q-12 -111 -113 -105 q-45 2 -47 76q-4 8 24 168q-113 18 -233 45q-33 0 -48 13t-13 40z" />
<glyph unicode="," horiz-adv-x="493" d="M127 -80q16 111 51 256q61 102 125 105q63 -6 70 -99q-3 -25 -31 -129q-27 -102 -43 -121q-43 -80 -102 -86q-76 -12 -70 74z" />
<glyph unicode="-" horiz-adv-x="1048" d="M225 682q-27 106 111 147q25 12 133 7l434 -107q11 57 17 57q4 0 8 -26q-23 -72 -103 -139q-8 14 -166 51q-367 49 -378 -68q-70 19 -56 78z" />
<glyph unicode="." horiz-adv-x="501" d="M176 154q0 35 29 73q29 37 88 49q82 -6 72 -98q-23 -156 -119 -188q-70 19 -70 164z" />
<glyph unicode="/" horiz-adv-x="825" d="M25 -252q18 76 147 485q164 362 231 625l177 361q-12 94 55 235q27 92 96 90q29 4 45.5 -16.5t18.5 -65.5q0 -2 -4 -22q-70 -268 -232 -697q-123 -377 -326 -854q20 -14 -4 -133q-61 -78 -118 -75q-77 2 -86 67z" />
<glyph unicode="0" horiz-adv-x="1374" d="M154 524q18 145 79 353q55 188 242 337q-29 4 -29 17q12 123 175 127q295 33 430 -213q178 -166 184 -500q-33 -217 -209 -450q-174 -231 -444 -144q-211 -10 -318 131q-128 92 -110 342zM332 567q0 -150 71 -258q78 -70 232 -102q207 37 332 143q127 109 96 268 q-37 193 -137 332q-101 141 -320 203q-10 -31 -63 -74q-121 -164 -158 -241q-47 -103 -53 -271z" />
<glyph unicode="1" horiz-adv-x="694" d="M68 1194q0 96 100 133q41 39 260 2q49 14 73.5 -14.5t24.5 -97.5q-22 -132 -49 -553q-8 -74 -20 -340q0 -88 -33 -228q-18 -96 -100 -112q-72 6 -54 135q2 164 -4 520q104 301 64 508l-6 14q-27 0 -193 -8q-12 -8 -45 -12q-14 -2 -18 11t0 42z" />
<glyph unicode="2" horiz-adv-x="1392" d="M106 889q20 213 246 354q264 152 471 100q172 49 256 -59q100 -72 133 -252q3 -304 -387 -510q-61 -74 -155 -153q-59 -37 -100.5 -60.5t-62 -34t-22.5 -6.5q-6 -55 209 -55q141 14 189 20q129 16 157 7q88 12 131 -11.5t41 -85.5q-6 -31 -36 -80q-31 -51 -72 -34 q-12 -6 -35 0q-20 6 -35 0q-66 2 -182 -23q-123 -27 -227 -6q-276 15 -301 233q-31 135 186 230q150 127 336 252q156 106 172 293q8 72 -58.5 104.5t-205.5 26.5q-84 20 -240 -23q-152 -74 -252 -143q6 -14 6 -29q2 -27 54 -65q53 -41 53 -78q0 -45 -33 -76 q-29 -25 -68 -47q-12 2 -28 12q-144 86 -140 199z" />
<glyph unicode="3" horiz-adv-x="1441" d="M121 1153q12 66 86 96q70 51 309 70q129 41 287 53q373 29 461 -274q-31 -225 -355 -316l224 -188q108 -117 110 -240q-25 -170 -225 -313q-162 -25 -391 -16q-227 0 -355 -11q-49 35 -43 72q-6 51 37 94q41 41 82 41q45 -2 168 -31q123 -28 154 0q117 10 213 25 q158 49 188 88q-41 131 -199 201q-158 72 -311 63q-55 8 -115 -4q-58 -12 -79 0q-57 6 -60 62q3 98 92 129q31 31 131 37q190 72 318 106q199 84 201 152q4 35 -25 61.5t-88 40.5q-68 39 -154 20q-270 41 -585 -96q-4 2 -11 0q-57 0 -65 78z" />
<glyph unicode="4" horiz-adv-x="1282" d="M76 659q10 86 65 215l86 234l41 147q12 63 38 91t65 18q66 12 71 -70q-12 -106 -92 -323t-69 -271q-18 -137 245 -110q59 -35 365 53l-27 178q-8 152 27 219.5t113 53.5q14 0 20 -43q25 -61 37 -226q-20 -27 -14 -96q-18 -74 -9 -100q33 6 84 2q74 0 74 -64 q-8 -39 -29 -80q-25 -47 -65 -43q-18 -10 -66 -6q-6 -52 0 -129q12 -100 -2 -135q29 -199 -98 -199q-59 -10 -53 39q-6 78 2 211q-20 129 -8 191q-276 -86 -435 -70q-129 2 -231 82q-98 67 -135 231z" />
<glyph unicode="5" horiz-adv-x="1462" d="M168 231q4 49 25 84q25 39 77 33q4 6 117 -53q109 -94 262 -76q176 -31 279 51q190 102 182 273q10 98 -100 168q-68 33 -170 34q-158 18 -367 -98q-166 -84 -188 -88q-39 4 -57.5 22.5t-16.5 49.5q25 242 164 540q-57 18 -58 43q12 104 97 136q39 16 182 -2 q51 25 244 24q152 33 284 14q47 0 68.5 -16t15.5 -49q18 -101 -80 -154q-47 0 -163 -12q-94 12 -473 -10q-25 -96 -33 -281q221 109 422 146q170 -35 299 -131q120 -120 123 -301q-27 -188 -240 -437q-205 -104 -455 -108q-104 -20 -248 2q-121 76 -163 141q-31 35 -29 55z " />
<glyph unicode="6" horiz-adv-x="1368" d="M209 451q-41 225 100 499q92 297 193 396q59 27 80 28q70 6 57 -78q6 -23 -18 -77q-76 -98 -107 -172q-61 -82 -84 -170q172 127 455 71q258 23 356 -82q52 -95 49 -233q-28 -200 -252 -467q-221 -119 -471 -129q-197 -10 -315 86q-68 148 -43 328zM354 524 q-12 -166 54.5 -240.5t212.5 -58.5q172 -49 348 146q131 106 149 247q-2 74 -94 146q-145 33 -150 33q-233 -6 -514 -162q-9 -71 -6 -111z" />
<glyph unicode="7" horiz-adv-x="1284" d="M117 1245q4 49 35 88q33 41 71 35q59 0 123 -10q88 18 123 2l223 24q442 -18 467 -55l4 -2q55 -23 49 -72q-4 -41 -172 -366q-94 -113 -204 -295q-104 -195 -179 -365q-4 -23 -34 -143q-61 -76 -109 -74q-70 2 -82 66q6 14 12 41q80 233 205 520q119 215 348 467 q-324 37 -616 35q-111 27 -205 53q-33 10 -47 22.5t-12 28.5z" />
<glyph unicode="8" horiz-adv-x="1431" d="M197 889q25 139 161 280l17 21q-6 76 69 127q113 41 281 22q221 10 338 -65q162 -113 119 -268q6 -211 -121 -312q197 -94 180 -307q-23 -156 -203 -328q-141 -45 -366 -36q-195 -6 -340 28q-143 115 -121 271q-33 207 172 356q-161 76 -186 211zM371 928 q6 -117 358 -142q84 16 207 48q96 45 90 122q0 104 -125 148q-100 82 -213 51q-29 18 -59 12q-27 -33 -101 -77l-106 -52q-45 -32 -51 -110zM375 391q-12 -109 125 -145q96 -70 225 -70q111 -10 225 41q113 78 113 150q16 80 -88 137q-127 78 -201 84q-158 0 -262 -33 q-172 -43 -137 -164z" />
<glyph unicode="9" horiz-adv-x="1462" d="M184 672q12 324 209 499q213 254 557 218q72 0 154 -41q121 -43 170 -144q2 -8 2 -35q-6 -29 -35 -82q-29 -49 -65 -36l-74 61l-2 2l-2 1l-2 2l-2 1l-2 2l-2 2l-2 1l-2 2l-2 2l-2 1l-3 2q-102 84 -211 41q-168 20 -297 -116q-201 -113 -170 -279q-14 -100 27 -186 q78 -96 166 -90q131 16 235 92l209 143q66 90 131 105q35 2 53.5 -17.5t22.5 -58.5q-23 -92 -86 -389q-41 -254 -80 -293q-55 -89 -123 -86q-63 -10 -65 63q4 66 57 222q33 98 49 196q-215 -238 -395 -205q-209 2 -301 140q-92 135 -117 260z" />
<glyph unicode=":" horiz-adv-x="497" d="M143 86q2 45 29 107q55 72 107 77q80 -2 81 -84q-6 -59 -53 -123q-27 -72 -96 -65q-33 8 -49 27q-25 26 -19 61zM150 530q-10 41 34 107q43 66 99 53q31 2 47 -18.5t18 -65.5q-6 -35 -45 -104q-37 -63 -90 -45q-65 -1 -63 73z" />
<glyph unicode=";" horiz-adv-x="475" d="M106 -43q33 117 52 168q49 104 114 104q71 -9 68 -79v-3q0 -2 -3 -9l-6 -14t-8.5 -21.5t-11.5 -28.5q-31 -106 -41 -146q-55 -100 -100 -94q-71 6 -61 80q-9 14 -3 43zM176 578q6 45 35 90t88 47q35 0 53 -56q28 -49 25 -92q-6 -39 -35 -84q-31 -49 -74 -34q-43 0 -67 49 q-28 28 -25 80z" />
<glyph unicode="&#x3c;" horiz-adv-x="886" d="M63 641q0 63 68 113q143 180 477 229q35 55 39 55q29 0 47 -26q18 -29 17 -64q-6 -49 -80 -121l-146 -59q-92 -47 -151 -96q94 -45 295 -201q2 -18 8 -55q0 -45 -39 -92q-25 -55 -76 -54q-47 6 -231 123q-125 121 -185 164q-53 43 -43 84z" />
<glyph unicode="=" horiz-adv-x="1222" d="M178 465q6 102 96 129q70 10 283 14q16 2 191 21q125 -33 190 -8q20 -2 49 -6.5t35 -4.5q61 -14 49 -63q-4 -133 -92 -148h-203q-80 2 -266 -32q-176 -33 -264 22q-39 -10 -55.5 8.5t-12.5 67.5zM236 874q0 55 30.5 98.5t98.5 37.5q14 0 35.5 1t53 2t56.5 1 q104 -18 139 -13q95 -15 166 -18q131 -4 189 -14q61 -18 55 -66q-6 -43 -41 -92q-37 -51 -82 -37q-63 6 -217 29q-137 20 -240 -27q-160 20 -180 23q-69 20 -63 75z" />
<glyph unicode="&#x3e;" horiz-adv-x="827" d="M170 903q-6 47 35 88q47 47 78 58q84 -2 217 -82q162 -127 229 -172q41 -29 37 -78q-6 -31 -37 -90q-51 -49 -197 -158q-154 -141 -217 -178q-61 6 -49 84q-12 63 49 112l189 181q-53 43 -201 112q-29 29 -104 66q-33 28 -29 57z" />
<glyph unicode="?" horiz-adv-x="1210" d="M174 561q0 166 219 221q27 41 332 95q217 86 285 147q-6 9 -6 18q0 141 -345 175q-205 -25 -348 -91q-41 -25 -55 -22q-31 -2 -45 26q-18 37 -21 56q-2 51 52 90q72 59 225 90q166 45 268 18q180 33 287 -45q145 -49 164 -241q-23 -143 -160 -287q-95 -34 -326 -80 q-244 -63 -338 -145q27 -20 31 -60q-6 -45 -26 -80q-31 -45 -80 -47q-37 -6 -80 56q-29 73 -33 106zM225 63q-6 59 49 115q33 63 88 74q55 -9 68 -80q-4 -14 -41 -72q-25 -59 -37 -69q-29 -43 -61 -41q-70 -1 -66 73z" />
<glyph unicode="@" horiz-adv-x="1808" d="M164 442q-6 213 96 455q160 244 293 410q231 201 465 229q287 -53 452 -315q244 -225 201 -496q-25 -145 -121 -340q-119 -115 -315 -115q-209 0 -285 97q-92 -66 -168 -80q-106 6 -139 98q-47 74 -63 170q20 145 88 326q131 219 272 200q76 12 168 -49q76 -59 92 -102 q-4 -37 -26 -78q-25 -43 -78 -37q-8 -2 -68 35q-53 33 -100 47q-76 -2 -121 -106q-35 -90 -43 -168q2 -129 51 -111q53 -4 131 80q76 82 121 80q35 6 51.5 -20.5t22.5 -53.5l-6 -31q0 -6 -1 -17t-4 -18q-10 -80 154 -88q221 0 184 265q43 231 -96 364q-184 190 -383 197 q-301 8 -477 -260q-190 -231 -121 -506q-12 -219 99.5 -309.5t347.5 -49.5q61 -71 67 -141q-2 -150 -176 -137q-291 41 -403 162q-164 143 -162 413z" />
<glyph unicode="A" horiz-adv-x="1112" d="M37 55q-6 45 149 520q127 180 174 437q70 100 97 192q43 76 73 150q22 52 66 52q10 0 22 -3h5q44 0 73 -55q35 -84 70 -228q37 -236 45 -235q74 -276 270 -676q-51 -66 -51 -80q-6 -43 -41 -94q-29 -43 -55 -43q-9 0 -19 4q-57 4 -96 194q-45 -30 -97 -29q-10 0 -20 1 q-16 -4 -86 -4q-51 0 -79 4l-269 26q-106 -207 -159 -219q-72 6 -73 74q1 6 1 12zM352 385l398 -78q-90 262 -138 692q-67 -28 -260 -614z" />
<glyph unicode="B" horiz-adv-x="1230" d="M63 1161q2 51 78 99q70 43 305 106q203 18 306 20q426 -57 432 -315q-25 -162 -381 -422q31 5 58 5q97 0 165 -60q95 -76 95 -194q0 -19 -3 -40q2 -15 2 -30q0 -71 -45 -154q-78 -70 -157 -108q-147 -63 -443 -76q-67 -12 -123 -13q-110 0 -176 48q-61 8 -72 77l-2 365 q19 193 19 372q0 105 -6 206q28 37 14 36h-4q-47 0 -62 78zM270 199q124 -3 201 -4q48 0 70 2q309 8 377 73q31 34 30 43l2 18q0 89 -143 142q-141 51 -240 53l-272 -55q3 -44 3 -83q0 -115 -28 -189zM322 721q176 0 391 141q272 98 291 215q2 47 -89 103q-61 10 -178 10 q-209 -29 -395 -62q-27 -96 -27 -247q1 -73 7 -160z" />
<glyph unicode="C" horiz-adv-x="1114" d="M82 532q-7 41 -7 83q0 234 224 489q186 289 365 289q17 0 34 -2q286 -37 314 -387l26 26q-2 -43 -34 -82q-27 -31 -74 -53q-35 2 -60 74q-55 121 -71 141q-55 68 -116 68q-12 0 -24 -2q-143 0 -278 -199q-151 -227 -154 -381v-18q0 -178 111 -263q119 -90 301 -155 q129 37 207 80l92 94q55 68 74 69q5 0 9 1q56 0 57 -64q0 -6 -1 -12q-4 -18 -14 -47q-68 -113 -193 -179q-129 -68 -268 -92q-45 -7 -86 -7q-193 0 -311 159q-126 168 -126 324q0 23 3 46z" />
<glyph unicode="D" horiz-adv-x="1339" d="M55 1204q16 94 111 133q57 14 158 25l61 -12q330 -18 600 -90q314 -166 314 -469q0 -9 -1 -17q-35 -211 -380 -532q-297 -106 -594 -199q-23 -55 -37 -59q-47 2 -48 67q0 20 5 45q-7 39 -7 87q0 107 33 255q3 68 3 122q0 141 -19 194l29 225q-13 59 -13 103q0 48 15 77 q-126 -10 -157 -10q-7 0 -7 0.5t4 1.5q-6 -1 -11 -1q-48 0 -59 54zM399 170q268 113 424 242q315 215 315 336q0 9 -1 18q-6 166 -291 338q-174 6 -395 76l30 -435q-62 -358 -82 -575z" />
<glyph unicode="E" horiz-adv-x="1101" d="M100 795q70 159 70 281q0 31 -4 59q-25 23 -31 65q4 115 94 117q20 35 70 39q4 1 7 0l24 -10q121 31 264 31q152 0 330 -36q40 20 61 20q25 0 27 -28q-4 -84 -84 -110q-17 -9 -66.5 -9.5t-132.5 9.5q-61 -31 -246 -31q-47 0 -104 2q-27 -92 -98 -397q233 14 444 22 q8 1 14 1q47 0 56 -58q-6 -104 -95 -111q-19 -13 -96 -13q-19 0 -45 1h-16q-113 0 -258 -39q-28 -37 -31 -74q41 -303 246 -354q43 16 227 57q176 41 211 72q8 1 16 1q83 0 86 -64q-16 -94 -143 -160q-23 1 -46 1l-181 -18q-20 -10 -40 -19l-37.5 -17.5t-45.5 -20.5 q-61 -12 -109 -18h-4q-309 0 -310 330q0 68 13 149q-40 90 -40 237q0 44 3 93z" />
<glyph unicode="F" horiz-adv-x="1105" d="M47 1182q8 94 90 137q58 26 201 26q49 0 108 -4q250 73 426 74q77 0 140 -14q11 2 21 2q62 0 67 -80q-12 -76 -103 -129q-8 0 -32.5 2t-76.5 7t-102 9q-76 -25 -491 -102q45 -92 100 -403q154 55 357 65q55 0 55 -64q0 -12 -2 -26q2 -12 1 -23q0 -78 -71 -100 q-41 -8 -143 -16q-19 1 -38 1q-101 0 -185 -30q-5 -17 -6 -48q0 -36 8 -97q-3 -81 -3 -106q0 -19 1 -34q-34 -227 -129 -258q-50 12 -50 81v16q-2 14 -2 40q0 17 2 82q1 38 2 62q0 38 -4 57q-14 309 -43 746q-8 70 -32 69q-66 1 -66 58z" />
<glyph unicode="G" horiz-adv-x="1333" d="M80 586q-9 42 -9 82q0 140 109 264q63 197 260 348q158 123 279 123q27 0 53 -6q19 3 39 3q86 0 166 -54q96 -66 117 -132q27 -14 26 -32q1 -5 1 -11q0 -38 -36 -71q-29 -51 -63 -52q-2 0 -4 1q-4 2 -92 77q-86 74 -178 74q-195 -25 -369 -158q-121 -209 -121 -344 q0 -26 4 -49q3 -197 105 -319q100 -121 282 -144q180 18 307 125q-244 172 -270 221q3 58 25 93q22 48 65 47h10q6 0 29 -17q82 -45 143 -100q61 -47 134 -72q66 -25 172 -73q35 -23 41 -60q-6 -39 -33 -84q-22 -39 -52 -39q-7 0 -16 2q-23 -2 -53 19q-109 -133 -246 -185 q-160 -59 -268 -83q-270 6 -393 186q-125 184 -164 420z" />
<glyph unicode="H" horiz-adv-x="1183" d="M70 512q23 260 39 369l16 174q-5 47 -5 86q0 176 97 176h10q8 2 14 2q33 0 34 -54q0 -14 -3 -32q7 -57 7 -152q0 -204 -31 -587q23 82 49 82q1 0 2 -1q37 5 83 5q106 0 249 -25q219 -25 256 -63q35 150 100 483q-42 87 -42 147q0 11 1 21q-4 26 -4 50q0 44 14 81 q17 101 101 101q5 0 10 -1q49 -2 49 -88q-18 -125 -61 -704q3 -7 3 -37q0 -61 -14 -246q-6 -82 -34 -219q-14 -82 -82 -94q-54 5 -55 61q0 9 1 19q-8 25 -14 288q-3 -43 -60 -43h-7q-10 2 -54.5 7.5l-74.5 9.5q-84 26 -105 26q-6 0 -10 -2q-51 -3 -114 -3t-140 3 q-47 25 -55 29q-6 -35 -13 -172q1 -16 1 -32q0 -165 -82 -165q-9 0 -19 2h-8q-45 0 -45 72q-4 176 -4 426z" />
<glyph unicode="I" horiz-adv-x="786" d="M74 37q-2 92 71 123q22 25 106 25q9 0 19 -1q16 113 43 516q-4 139 -4 245q0 128 6 216q-23 -4 -53 -2q-29 -10 -45 -4q-113 0 -131 86q0 41 33 82t67 45q10 1 23 1q37 0 92 -7q19 -2 36 -2q48 0 77 16l141 -8q32 4 57 4q40 0 66 -10q53 -16 49 -66q-12 -89 -98 -141 l-78 6q-8 -8 -76 -10q19 -590 19 -875v-79q35 27 153 32h5q57 0 56 -63q0 -11 -1 -25q2 -13 1 -25q0 -98 -108 -118q-6 1 -21 1q-41 0 -108 -7q-65 3 -119 3q-181 0 -213 -30h-6q-61 0 -61 52q0 10 2 20z" />
<glyph unicode="J" horiz-adv-x="1271" d="M45 385q-7 29 -7 57q0 114 114 207q84 92 204 133q12 2 27.5 5.5t19.5 3.5h5q47 0 47 -55v-13q2 -59 -58 -127q-76 -37 -116 -64q-68 -31 -66 -77q-2 -10 -2 -20q0 -91 152 -191q110 -40 210 -40q35 0 68 5h16q191 0 291 143q73 89 73 301q0 31 -1 64q2 19 1 47 q0 135 -36 504q-43 -25 -43 -19q0 41 43 86q45 49 72 51q2 0 3 1q26 0 44 -48q49 -76 63 -292q23 -154 43 -316q-35 -244 -161 -528q-162 -170 -453 -170q-44 -3 -89 -4q-156 0 -308 43q-158 139 -158 279q0 17 2 34z" />
<glyph unicode="K" horiz-adv-x="1173" d="M74 61q2 154 35 365q-17 120 -18 214q0 119 28 194v272q31 254 106 276q63 -12 68 -120q7 -97 6 -194q0 -124 -10 -243q76 70 223 150q154 162 231 178q76 82 236 195q20 29 41 26q31 4 47 -22q14 -23 20 -49q-4 -41 -32 -74q-106 -135 -336 -244q-213 -231 -305 -268 q184 -113 596 -395q87 -143 86 -190q0 -10 -4 -15q-6 -34 -37 -80q-24 -36 -54 -36q-9 0 -18 3q-16 -2 -47 21q-31 12 -162 157q-190 188 -516 359l37 -293q-41 -156 -53 -170q-15 -103 -97 -103h-10q-51 8 -61 86z" />
<glyph unicode="L" horiz-adv-x="1083" d="M59 453q29 125 54 364q25 250 67 440q-2 10 -2 21q0 34 23 68q23 35 57 34q12 0 25 -4q53 -2 71 -112q-4 -209 -14 -457q-88 -168 -88 -271q0 -21 4 -40q6 -117 53 -185q48 -109 150 -108h6q12 -2 24 -2q86 0 230 73q92 47 169 47q58 0 105 -26q16 4 30 4q51 0 51 -59 q0 -8 -1 -17q-9 -71 -104 -135q-5 1 -31 1q-40 0 -111 -3q-6 -20 -223 -90q-78 -2 -178 -19q-190 2 -252 170q-88 132 -115 306z" />
<glyph unicode="M" horiz-adv-x="1597" d="M63 86q80 248 109 782q59 133 66 226q27 164 53 225q36 93 107 93q9 0 18 -1q25 0 49 -41q41 -45 133 -262q137 -473 231 -721q33 252 150 617q33 88 65 143q20 86 48 141q39 74 108 78q47 -4 76 -59q-2 -18 22 -113q12 -158 74 -371l94 -383q39 -76 50 -157 q29 -90 28 -158q-8 -43 -39 -92q-26 -40 -59 -41q-10 0 -21 4h-3q-28 0 -48 45q-35 47 -49 139q-6 61 -35 142q-23 221 -106 636q-120 -233 -203 -688q-80 -41 -82 -57q-45 -84 -63 -113q-36 -66 -90 -65h-5q-27 -2 -64.5 94t-84.5 293q-57 322 -217 582q-72 -442 -82 -666 q-6 -39 -25 -131q-14 -84 -43 -156q-39 -59 -96 -78q-61 12 -59 82q-10 13 -7 31z" />
<glyph unicode="N" horiz-adv-x="1150" d="M72 41q14 221 28 395q24 236 24 337q0 22 -1 38l-10 248q2 262 151 317q25 -25 43 -53q49 -80 101 -154q53 -131 75 -147q131 -242 410 -565q-29 143 -57 628q53 46 53 64q0 4 -2 6q0 7 -1 14q0 61 23 107q41 86 109 92h5q51 0 51 -62q0 -7 -1 -16q-16 -111 -26 -459 q-3 -104 -3 -182q0 -173 13 -223v-38q0 -129 -19 -212q-23 -66 -51 -104q-28 -62 -75 -62h-9q-18 0 -43 31q-49 43 -170 242q-174 227 -373 686q-63 -293 -71 -627q4 -40 3 -76q0 -52 -7 -90q1 -12 1 -23q0 -49 -20 -85q-20 -95 -98 -95h-14q-4 -1 -8 -1q-34 0 -31 69z" />
<glyph unicode="O" horiz-adv-x="1368" d="M98 571q-14 59 -13 117q0 146 87 281q84 193 209 272q81 102 299 103q6 0 12 -1q44 6 85 6q240 0 353 -200q176 -158 183 -494q-35 -219 -170 -475q-162 -141 -431 -141h-12h-16q-257 0 -461 96q-131 169 -131 355q0 40 6 81zM240 643q10 -176 145 -317 q143 -119 344 -150q180 51 283 135q104 86 123 293q-43 224 -154 363q-109 135 -371 176q-45 0 -159 -51q-213 -165 -213 -404q0 -22 2 -45z" />
<glyph unicode="P" horiz-adv-x="1265" d="M66 1260q-1 7 -1 13q0 39 31 73q27 29 54 28l20 -4q28 6 68 6q67 0 165 -16q44 3 87 2q264 0 468 -96q268 -106 269 -367q0 -22 -2 -45q-27 -186 -330 -414q-244 -49 -530 -75q1 -31 0 -58q0 -139 -15 -188q-22 -114 -104 -129q-62 5 -62 70q0 13 2 28q-4 115 -20 264 q27 110 27 187q0 39 -7 71l19 267q-6 16 -6 31q0 30 22 65q36 39 82 39h6h4q64 0 64 -117q2 -16 1 -37q0 -107 -40 -319q26 -1 51 -1q213 0 373 70q276 122 275 227q0 7 -1 13q2 137 -186 192q-109 84 -242 84q-29 0 -59 -4q-96 39 -199 39h-14q-168 8 -223 29 q-49 19 -47 72z" />
<glyph unicode="Q" horiz-adv-x="1380" d="M76 530q-6 41 -6 84q0 178 106 367q135 154 299 264q59 88 123 113q49 10 117 16q256 -43 438 -205q155 -132 155 -402q0 -25 -1 -50q-37 -248 -205 -537q176 -96 176 -178q2 -39 -33 -84q-28 -35 -53 -35q-7 0 -12 2h-3q-47 0 -231 193q-108 -76 -271 -76h-24 q-28 -1 -54 -1q-234 0 -345 97q-179 139 -180 368q1 31 4 64zM231 537q18 -139 119 -242q147 -82 316 -121q104 35 174 53q-96 142 -97 184q0 9 5 13q-2 33 18 65q20 31 61 31q41 -6 170 -215q135 138 135 336q0 24 -2 49q2 233 -155 330q-109 121 -264 121q-53 0 -111 -15 q-2 14 -10 14q-6 0 -17 -7q-342 -207 -342 -577v-19z" />
<glyph unicode="R" horiz-adv-x="1320" d="M66 1231q0 41 40 82q45 45 74 47q56 5 110 5q266 0 494 -122q19 1 37 1q199 0 285 -97q150 -86 170 -316q-27 -203 -377 -419q100 -68 205 -160q14 -16 35.5 -47t23.5 -33q43 -33 45 -72q-6 -43 -28 -82q-25 -43 -76 -45q-3 -1 -6 0q-15 0 -33 13q-229 121 -336 417 q-215 -72 -440 -71h-19q4 -51 4 -93q0 -91 -16 -118q-9 -120 -75 -120q-6 0 -13 1q-39 0 -51 68q2 47 8 157q10 174 10 189q-4 61 -4 139q-4 111 -4 145q-1 22 -1 45q0 195 48 445q-26 -7 -47 -7q-54 0 -63 48zM342 1116q-18 -9 -18 -123q0 -169 38 -563q164 92 383 162 q311 127 375 231q-6 156 -377 264q-98 35 -251 36q-68 0 -150 -7z" />
<glyph unicode="S" horiz-adv-x="1236" d="M45 932q4 225 231 305q129 110 292 110q65 0 137 -18q103 18 181 18q247 0 247 -175v-17l-70 -151q-38 -76 -101 -76h-6q-33 8 -51 28q-18 31 -18 64q-4 49 31 78q-77 49 -277 55q-13 1 -26 1q-214 0 -343 -148q-25 -2 -36 -7.5t-9 -15.5q-1 -8 -1 -16q0 -131 237 -195 l502 -117q221 -117 217 -329q-20 -139 -164 -273q-104 -34 -267 -33h-55q-119 -14 -282 -16q-170 57 -226 80q-63 35 -62 75q0 5 1 11q0 57 29 92q24 30 76 30q9 0 18 -1q6 1 15 1q34 0 143 -18q121 -44 253 -43q53 0 109 7q51 -16 91 -17q20 0 36 4q53 10 75.5 25.5 t20.5 40.5q8 51 -61.5 99t-216.5 95q-410 39 -426 117q-232 135 -244 330z" />
<glyph unicode="T" horiz-adv-x="1460" d="M25 1151q-2 63 32.5 98t89.5 54q2 -2 17 -7q8 -2 18 -2q32 -1 68 -1q195 0 498 42q336 47 612 92q86 -31 86 -94q-12 -80 -100 -135h-111q-72 -4 -125 -16h-13q-73 0 -202 -33q-123 -12 -256 -23q1 -15 1 -32q0 -122 -38 -326q16 -155 16 -248q0 -87 -14 -117l17 -184 q-26 -210 -101 -210q-5 0 -10 1q-5 -3 -11 -2q-19 0 -36 33q-12 74 -12 240q6 47 5 104q0 134 -30 328q23 330 47 397q-215 -4 -323 -12q-123 2 -125 53z" />
<glyph unicode="U" horiz-adv-x="1376" d="M106 594q-17 55 -17 119q0 109 50 248q43 242 64 313q55 66 96 72q6 1 11 0q50 0 49 -49q0 -7 -1 -15q6 -12 2 -33q-2 -4 -57 -309q-51 -115 -51 -219q0 -21 2 -41q-7 -39 -7 -77q0 -169 144 -306q129 -74 310 -74q53 0 110 6q14 -1 28 -1q156 0 228 155q36 78 36 270 q0 40 -1 84q4 26 4 86q0 72 -6 185q-12 217 -39 270q-3 11 -3 20q0 30 29 58q43 39 84 53q58 0 123 -246q12 -254 13 -383q-41 -285 -123 -551q-133 -180 -435 -180h-20h-34q-258 0 -464 88q-132 167 -131 365q-1 45 6 92z" />
<glyph unicode="V" horiz-adv-x="1226" d="M53 1249q-5 15 -5 30q0 31 24 56q31 35 82 47q2 0 3 1q28 0 54 -44q47 -68 123 -313q115 -274 229 -762l387 754q-8 29 -7 56q0 47 22 93l84 168q31 63 79 70q29 -6 50 -27q23 -23 20 -61q-4 -25 -14 -57q-39 -86 -105 -211q-80 -188 -272 -578q-10 -68 -47 -221 l-135 -213q-63 -63 -121 -70h-4q-25 0 -47 39q-4 16 -58 160q-16 131 -61 258q-123 203 -154 416q-123 331 -127 409z" />
<glyph unicode="W" horiz-adv-x="1705" d="M55 1260q0 39 45 81q47 43 76 48h4q30 0 49 -50q34 -46 50 -141q14 -57 51 -149q61 -201 119 -615l309 555q-10 40 -10 77q0 49 18 87q12 76 51 127q31 60 79 60q3 0 5 -1q51 -2 96 -102q10 -51 86 -305q84 -334 244 -586q8 313 121 668q-19 49 -19 100q0 26 5 51 q12 88 41 152q51 78 96 82h5q69 0 69 -84q0 -10 -3 -25q-53 -217 -147 -731q-23 -186 -51 -315q-12 -111 -41 -211q-60 -84 -109 -84h-4q-37 0 -73 41q-37 57 -125 227q-127 475 -263 752q-90 -238 -170 -641q-53 -47 -61 -113l-55 -135q-72 -82 -125 -94q-37 3 -56 73 q-10 16 -30 115q-27 90 -78 293q-61 211 -135 840q-64 -48 -64 -47z" />
<glyph unicode="X" horiz-adv-x="1247" d="M59 78q6 92 306 534l-277 662q6 39 29 90q18 41 53 41q8 0 18 -2h5q19 0 45 -23l116 -166q74 -131 219 -299q104 63 220 218q131 137 188 210q37 33 66 39q27 0 45 -22.5t16 -61.5q0 -23 -31 -71q-6 -8 -17 -26.5t-37 -57.5l-48 -74l-313 -315q460 -490 460 -657 q0 -27 -12 -46q-4 -29 -33 -74q-24 -35 -51 -35q-8 0 -16 3q-2 0 -5 -1q-19 0 -36 23q-18 25 -152 176q-27 100 -203 398q-152 -84 -262 -301q-47 -49 -151 -187q-23 -60 -66 -60q-4 0 -8 1q-27 6 -47 26q-23 23 -21 58z" />
<glyph unicode="Y" horiz-adv-x="1347" d="M72 1051q-1 23 -1 44q0 246 126 300q18 -10 61 -43q27 -18 23 -58q-2 -10 -6.5 -46t-8.5 -60q-10 -80 -8 -86q-1 -17 -1 -34q0 -141 93 -218q102 -84 244 -133q154 39 254 90q119 96 190 213l-34 229q12 57 45 90q27 51 88 52h2q78 0 78 -222q0 -70 34 -227 q15 -66 15 -125q0 -73 -23 -131q-37 -261 -123 -498q-128 -146 -401 -145h-23q-84 -29 -218 -29h-25l-195 76q-51 33 -45 66q0 47 27 94q23 40 71 39h13q0 6 12 2q210 -72 339 -72q31 0 58 4q52 -10 92 -9q62 0 93 24q47 37 110 165l47 310q-268 -182 -543 -240 q-213 25 -331 205q-129 129 -129 362v11z" />
<glyph unicode="Z" horiz-adv-x="1378" d="M82 1241q-2 11 -2 22q0 40 26 66q35 35 93 47q5 1 14 1q21 0 178 -9q133 -4 375 -45q177 34 270 34q74 0 97 -22q18 3 32 3q76 0 74 -64q-12 -51 -39 -109q-45 -106 -285 -354q-144 -169 -528 -682q145 92 422 98q185 47 338 48q79 0 149 -13h4q39 0 35 -72 q-10 -72 -96 -133q-11 -2 -36 -1q-52 0 -230 10q-61 1 -118 1q-478 0 -685 -92q-62 20 -62 76q0 5 1 10q-3 11 -3 23q0 37 31 80q43 80 107 162q90 59 147 143q236 264 527 659q-244 51 -411 52q-133 0 -218 -33q-121 12 -152 33q-57 20 -55 61z" />
<glyph unicode="[" horiz-adv-x="997" d="M170 1241q-6 55 31 94t63 45q55 -10 217 -6q147 4 215 27q76 -2 76 -74q-4 -127 -133 -127q-43 -37 -190 -18q20 -217 6 -387q23 -311 30 -373q-20 -104 -14 -201l-2 -8h104q68 0 111 6q147 -3 129 -86q-6 -39 -29 -84q-25 -51 -71 -47q-31 -10 -174 8q-43 -23 -93 -20 q-59 4 -81 -4q-129 0 -111 94q-9 49 12 86q18 94 4 180q12 150 -32 404q6 309 20 399q-106 0 -88 92z" />
<glyph unicode="\" horiz-adv-x="794" d="M29 1436q4 53 32 94q31 43 82 49q37 -6 58 -100q37 -55 53 -111q33 -74 186 -721l328 -854q0 9 0 -12q-6 -39 -35 -84q-29 -43 -71 -31q-35 -2 -56 43q-12 29 -49 94q-2 8 -7 53.5t-9 63.5q-41 104 -95 404q-111 301 -274 581q-96 418 -143 531z" />
<glyph unicode="]" horiz-adv-x="980" d="M172 1239q0 51 27 86q31 41 73 64q27 -4 144 10q27 -12 100 -13q80 -10 119 3q102 -4 115 -80q-6 -61 -33 -90q-12 -76 -17 -146q29 -156 48 -434q-27 -266 6 -416q76 -18 67 -102q-6 -37 -26 -82q-37 -37 -80 -37q-72 4 -223 -20q-154 -25 -199 4q-68 -8 -80 67 q18 117 137 154q29 2 217 -17q-37 199 -28 410q-43 199 -27 379q10 74 -2 172q-10 10 -77.5 10t-94.5 2q-78 -12 -109 6q-55 19 -57 70z" />
<glyph unicode="^" horiz-adv-x="1044" d="M129 403q-6 35 121 467q126 429 182 392q41 90 121 102q55 6 160 -199q-12 -39 43 -268q57 -100 102 -195q59 -182 55 -223q-6 -35 -40.5 -98.5t-75.5 -44.5q-70 2 -154 344q-88 127 -125 352q-66 -295 -158 -426q-2 -61 -49 -182q-66 -94 -112 -100q-76 3 -70 79z" />
<glyph unicode="_" horiz-adv-x="1214" d="M2 113l102 12l852 135l5 -274z" />
<glyph unicode="`" horiz-adv-x="561" d="M86 1888q-6 51 39 97q47 47 80 45q33 -4 63 -52q23 -57 103 -172q25 -63 78 -139q20 -51 18 -63q-6 -35 -37 -93q-31 -53 -70 -38q-25 -4 -51 22q-45 25 -133 203t-90 190z" />
<glyph unicode="a" horiz-adv-x="1118" d="M39 55q-6 45 149 520q127 180 174 437q70 100 97 192q43 76 73 150q22 52 66 52q10 0 23 -3h4q44 0 73 -55q37 -89 68 -228q37 -236 47 -235q74 -276 270 -676q-51 -66 -51 -80q-6 -43 -41 -94q-29 -43 -57 -43q-9 0 -19 4q-55 2 -94 194q-45 -30 -97 -29q-10 0 -19 1 q-16 -4 -87 -4q-51 0 -79 4l-269 26q-106 -207 -161 -219q-70 6 -71 74q1 6 1 12zM352 385l400 -78q-90 262 -138 692q-72 -34 -262 -614z" />
<glyph unicode="b" horiz-adv-x="1241" d="M68 1161q2 51 79 99q70 43 306 106q203 18 303 20q428 -59 434 -315q-25 -160 -383 -422q31 5 59 5q99 0 166 -60q93 -74 93 -193q0 -20 -3 -41q2 -15 3 -30q0 -71 -46 -154q-80 -72 -155 -108q-147 -63 -443 -76q-67 -12 -123 -13q-110 0 -176 48q-63 8 -73 77v365 q17 178 17 354q0 112 -7 224q28 37 16 36h-4q-48 0 -63 78zM274 199q124 -3 202 -4q49 0 71 2q309 8 377 73q31 34 30 43l2 18q0 89 -145 142q-141 51 -240 53l-272 -55q3 -44 3 -83q0 -115 -28 -189zM326 721q176 0 391 141q274 98 293 215q2 47 -90 103q-61 10 -179 10 q-209 -29 -395 -62q-27 -96 -26 -247q0 -73 6 -160z" />
<glyph unicode="c" horiz-adv-x="1120" d="M86 532q-7 42 -7 84q0 235 222 488q186 289 365 289q17 0 34 -2q289 -37 316 -387l24 26q-2 -43 -34 -82q-27 -33 -72 -53q-35 2 -60 74q-55 121 -71 141q-53 68 -117 68q-12 0 -24 -2q-139 0 -277 -199q-154 -231 -156 -381v-19q0 -180 111 -262q123 -90 303 -155 q121 33 205 80l92 94q55 68 76 69q5 0 9 1q54 0 55 -63q0 -6 -1 -13q0 -16 -12 -47q-68 -113 -193 -179q-129 -68 -268 -92q-45 -7 -86 -7q-195 0 -313 159q-124 166 -124 323q0 23 3 47z" />
<glyph unicode="d" horiz-adv-x="1343" d="M57 1204q16 92 113 133q63 16 158 25l59 -12q334 -18 602 -90q314 -166 314 -469v-17q-31 -207 -381 -532q-283 -100 -596 -199q-23 -55 -35 -59q-47 2 -47 67q0 20 4 45q-7 42 -7 93q0 108 31 249q3 68 3 122q0 141 -19 194l31 225q-13 59 -13 103q0 48 15 77 q-126 -10 -159 -10q-7 0 -7 0.5t4 1.5q-6 -1 -11 -1q-48 0 -59 54zM403 170q268 113 424 242q315 217 315 337q0 9 -1 17q-6 166 -293 338q-168 6 -393 76l30 -435q-59 -323 -82 -575z" />
<glyph unicode="e" horiz-adv-x="1075" d="M98 795q71 161 71 278q0 32 -5 62q-25 23 -31 65q4 115 96 117q20 35 68 39q4 1 7 0l24 -10q121 31 264 31q152 0 330 -36q40 20 61 20q25 0 27 -28q0 -82 -84 -110q-15 -9 -65.5 -9.5t-133.5 9.5q-61 -31 -246 -31q-47 0 -104 2q-27 -92 -98 -397q227 12 446 22 q7 1 14 1q45 0 56 -58q-6 -104 -95 -111q-19 -13 -98 -13q-20 0 -45 1h-16q-113 0 -258 -39q-28 -37 -31 -74q41 -303 246 -354q43 16 227 57q176 41 211 72q8 1 16 1q83 0 86 -64q-12 -92 -143 -160q-22 1 -46 1q-89 0 -181 -18q-20 -10 -40 -19l-37.5 -17.5t-45.5 -20.5 q-61 -12 -109 -18h-5q-308 0 -308 326q0 69 14 153q-42 94 -42 243q0 42 3 87z" />
<glyph unicode="f" horiz-adv-x="1107" d="M51 1182q12 113 146 153q39 14 162 14q41 0 92 -1q243 68 417 67q81 0 148 -14q11 2 21 2q62 0 67 -80q-12 -76 -103 -129q-8 0 -32.5 2t-76.5 7t-101 9q-72 -23 -494 -102q45 -88 102 -403q154 57 355 65q56 0 56 -60q0 -13 -3 -30q2 -15 2 -28q0 -74 -70 -95 q-39 -8 -145 -16q-19 1 -38 1q-100 0 -183 -30q-6 -19 -6 -53q0 -39 8 -92q-3 -81 -3 -106q0 -19 1 -34q-33 -227 -131 -258q-48 11 -48 80q0 8 1 17q-3 20 -4 60q0 25 2 62q2 66 2 82q0 24 -2 37q-8 170 -46 746q-8 70 -30 69q-66 1 -66 58z" />
<glyph unicode="g" horiz-adv-x="1339" d="M84 586q-9 42 -9 82q0 140 109 264q68 199 260 348q158 123 279 123q27 0 53 -6q19 3 39 3q86 0 166 -54q96 -66 117 -132q27 -14 24 -32q1 -6 1 -12q0 -39 -33 -70q-29 -51 -64 -52q-2 0 -4 1q-4 2 -92 77q-86 74 -178 74q-195 -25 -369 -158q-121 -209 -121 -344 q0 -26 4 -49q3 -197 105 -319q100 -123 282 -144q178 18 305 125q-244 172 -270 221q3 58 25 93q22 48 67 47h11t28 -17q82 -45 144 -100q59 -49 133 -72q55 -20 170 -73q35 -23 41 -60q-8 -43 -31 -84q-22 -39 -52 -39q-7 0 -16 2q-25 -3 -55 19q-115 -137 -244 -185 q-160 -59 -270 -83q-268 6 -391 186q-125 184 -164 420z" />
<glyph unicode="h" horiz-adv-x="1189" d="M74 512q23 260 39 369l14 174q-5 47 -5 86q0 176 97 176h10q8 2 15 2q35 0 35 -56q0 -13 -3 -30q7 -57 7 -152q0 -204 -31 -587q23 82 47 82q1 0 2 -1q37 5 83 5q106 0 249 -25q219 -25 256 -63q35 141 102 483q-42 87 -42 147q0 11 1 21q-5 30 -5 55q0 42 13 76 q17 101 103 101q5 0 10 -1q49 -2 49 -88q-12 -78 -61 -704q3 -7 3 -37q0 -61 -13 -246q-6 -82 -35 -219q-14 -82 -82 -94q-56 5 -57 62q0 8 2 18q-6 18 -13 288q-3 -43 -61 -43h-8q-10 2 -53.5 7.5l-73.5 9.5q-84 26 -107 26q-7 0 -10 -2q-51 -3 -114 -3t-140 3 q-47 25 -55 29q-6 -35 -13 -172q1 -22 2 -41q0 -155 -81 -156q-9 0 -19 2h-8q-48 0 -45 72q-4 176 -4 426z" />
<glyph unicode="i" horiz-adv-x="333" d="M55 465q44 200 45 316q0 47 -8 77l-29 234q47 254 152 284q5 1 11 1q59 0 59 -125v-11q-20 -139 -35 -496q-7 -174 -7 -276q0 -129 11 -170v-12q0 -252 -125 -273q-15 -5 -28 -4q-47 0 -46 67v13q9 63 9 157t-9 218z" />
<glyph unicode="j" horiz-adv-x="1302" d="M86 385q-7 30 -7 58q0 114 111 206q84 92 205 133q12 2 27.5 5.5t19.5 3.5h5q47 0 47 -55v-13q2 -63 -58 -127q-76 -37 -117 -64q-68 -31 -65 -77q-2 -10 -2 -20q0 -91 151 -191q110 -40 210 -40q35 0 69 5h16q192 0 291 143q75 91 75 314q0 25 -1 51q1 17 1 42 q0 120 -38 509q-43 -25 -43 -19q0 41 43 86q45 49 72 51q2 0 3 1q26 0 44 -48q49 -76 63 -292l43 -316q-37 -250 -159 -528q-162 -170 -455 -170q-44 -3 -89 -4q-156 0 -308 43q-156 137 -156 278q0 18 2 35z" />
<glyph unicode="k" horiz-adv-x="1179" d="M78 61q4 176 35 365q-18 126 -19 221q0 115 27 187l2 272q31 254 106 276q61 -12 66 -120q7 -110 7 -214q0 -117 -9 -223q78 72 221 150q154 162 234 178q80 86 233 195q20 29 41 26q31 2 47 -22q16 -27 23 -49q-4 -41 -33 -74q-102 -133 -336 -244q-207 -227 -307 -268 q203 -123 598 -395q87 -143 86 -190q0 -10 -4 -15q-6 -34 -37 -80q-24 -36 -55 -36q-9 0 -19 3q-16 -2 -47 21q-27 10 -160 157q-188 186 -518 359l39 -293q-41 -152 -55 -170q-15 -103 -97 -103h-10q-49 8 -59 86z" />
<glyph unicode="l" horiz-adv-x="1089" d="M63 453q27 111 52 364q23 236 69 440q-2 10 -2 21q0 34 23 68q23 35 55 34q11 0 25 -4q55 -4 73 -112q-2 -125 -16 -457q-88 -168 -88 -271q0 -21 4 -40q6 -113 53 -185q48 -109 152 -108h6q11 -2 24 -2q85 0 228 73q92 47 169 47q58 0 107 -26q16 4 30 4q51 0 51 -59 q0 -8 -1 -17q-8 -70 -106 -135q-5 1 -30 1q-39 0 -110 -3q-6 -20 -223 -90q-78 -2 -178 -19q-193 2 -254 170q-84 128 -113 306z" />
<glyph unicode="m" horiz-adv-x="1601" d="M66 86q80 248 108 782q59 133 66 226q27 164 53 225q36 93 107 93q9 0 18 -1q25 0 49 -41q41 -45 131 -262q131 -451 233 -721q33 252 150 617q33 88 66 143q20 86 47 141q39 74 108 78q47 -4 76 -59q-2 -18 22 -113q12 -158 74 -371l94 -383q39 -76 50 -157 q29 -90 28 -158q-8 -43 -39 -92q-26 -40 -59 -41q-10 0 -21 4h-3q-28 0 -48 45q-37 51 -49 139q-6 61 -35 142q-20 201 -108 636q-117 -227 -201 -688q-80 -41 -82 -57q-39 -74 -65 -113q-36 -66 -88 -65h-5q-55 -4 -151 387q-53 315 -217 582q-70 -426 -80 -666 q-12 -53 -25 -131q-14 -84 -43 -156q-39 -59 -96 -78q-61 12 -59 82q-7 7 -8 19q1 5 2 12z" />
<glyph unicode="n" horiz-adv-x="1153" d="M74 41q14 221 28 395q24 236 24 337q0 22 -1 38l-10 248q2 262 151 317q18 -14 43 -53q49 -80 101 -154q53 -131 75 -147q131 -242 410 -565q-33 158 -59 628q53 46 53 64q0 4 -2 6q0 72 24 121q45 86 109 92h5q51 0 51 -62q0 -7 -1 -16q-16 -115 -26 -459 q-3 -103 -3 -182q0 -173 13 -225v-31q0 -125 -21 -217q-25 -71 -49 -104q-28 -62 -75 -62h-9q-18 0 -43 31q-49 43 -170 242q-170 217 -373 686q-59 -276 -71 -627q3 -39 3 -72q0 -55 -9 -94q1 -14 1 -27q0 -48 -18 -81q-20 -95 -98 -95h-14q-4 -1 -8 -1q-31 0 -31 69z" />
<glyph unicode="o" horiz-adv-x="1370" d="M100 571q-14 59 -13 117q0 146 87 281q84 190 209 272q81 102 299 103q6 0 12 -1q44 6 85 6q240 0 354 -200q176 -158 182 -494q-35 -219 -170 -475q-162 -141 -431 -141h-12h-16q-254 0 -461 96q-131 172 -130 357q-1 39 5 79zM242 643q10 -176 145 -317 q143 -119 344 -150q180 51 283 135q104 86 123 293q-43 224 -154 363q-109 135 -371 176q-41 0 -159 -51q-213 -165 -213 -404q0 -22 2 -45z" />
<glyph unicode="p" horiz-adv-x="1267" d="M68 1260q-1 7 -1 13q0 39 31 73q27 29 54 28l20 -4q29 6 68 6q65 0 163 -16q45 3 88 2q265 0 470 -96q268 -106 268 -367q0 -22 -2 -45q-27 -186 -330 -414q-244 -49 -530 -75q1 -31 0 -58q0 -139 -15 -188q-22 -114 -104 -129q-62 5 -62 70q0 13 2 28q-4 115 -20 264 q27 110 27 187q0 39 -7 71l19 267q-6 16 -6 31q0 30 22 65q36 39 82 39h6h4q64 0 64 -117q1 -15 1 -34q0 -97 -40 -322q26 -1 51 -1q213 0 373 70q276 122 275 227q0 7 -1 13q0 137 -186 192q-109 84 -243 84q-28 0 -58 -4q-96 39 -199 39h-14q-168 8 -223 29q-49 19 -47 72 z" />
<glyph unicode="q" horiz-adv-x="1382" d="M76 530q-6 41 -6 84q0 178 106 367q135 154 299 264q59 88 123 113q49 10 117 16q256 -43 438 -205q155 -132 155 -402q0 -25 -1 -50q-37 -248 -205 -537q176 -96 176 -178q2 -39 -33 -84q-28 -35 -53 -35q-7 0 -12 2h-3q-47 0 -231 193q-108 -76 -271 -76h-24 q-28 -1 -54 -1q-234 0 -345 97q-179 139 -180 368q1 31 4 64zM231 537q18 -139 119 -242q147 -82 316 -121q104 35 174 53q-96 142 -97 184q0 9 5 13q-2 33 18 65q20 31 61 31q41 -6 170 -215q135 138 135 336q0 24 -2 49q2 233 -155 330q-109 121 -264 121q-53 0 -111 -15 q-2 14 -10 14q-6 0 -17 -7q-342 -207 -342 -577v-19z" />
<glyph unicode="r" horiz-adv-x="1323" d="M68 1231q0 41 41 82q45 45 73 47q56 5 110 5q264 0 494 -122q19 1 37 1q199 0 285 -97q150 -86 170 -316q-27 -203 -377 -419q100 -68 205 -160l59 -80q43 -33 45 -72q-6 -43 -28 -82q-25 -41 -78 -45q-3 -1 -6 0q-13 0 -31 13q-227 120 -338 417q-213 -72 -437 -71h-20 q3 -52 3 -92q0 -94 -15 -119q-9 -120 -77 -120q-6 0 -13 1q-39 0 -51 68l4 56q4 56 6 101q8 147 8 189q-2 31 -2 139q0 25 -1 74t-3 71q-1 24 -1 49q0 201 46 441q-26 -7 -46 -7q-53 0 -62 48zM342 1116q-17 -8 -17 -116q0 -163 40 -570q164 92 383 162q309 125 372 231 q-6 157 -375 264q-98 35 -254 36q-68 0 -149 -7z" />
<glyph unicode="s" horiz-adv-x="1239" d="M47 932q0 225 232 305q129 110 291 110q65 0 137 -18q103 18 181 18q247 0 247 -176v-16l-70 -151q-38 -76 -103 -76h-6q-31 6 -49 28q-21 35 -20 72q0 42 33 70q-77 49 -277 55q-13 1 -26 1q-217 0 -343 -148q-25 -2 -36 -7.5t-9 -15.5q-1 -8 -1 -16q0 -131 237 -195 l502 -117q221 -117 217 -329q-20 -139 -164 -273q-106 -34 -267 -33h-55q-119 -14 -282 -16q-170 57 -226 80q-63 35 -62 75q0 5 1 11q0 57 29 92q24 30 76 30q9 0 18 -1q6 1 15 1q34 0 143 -18q121 -44 254 -43q53 0 108 7q49 -16 89 -17q20 0 36 4q104 18 98 66 q8 51 -61.5 99t-216.5 95q-410 39 -426 117q-232 135 -244 330z" />
<glyph unicode="t" horiz-adv-x="1460" d="M25 1151q-2 63 32.5 98t89.5 54q2 -2 17 -7q8 -2 18 -2q32 -1 68 -1q195 0 498 42q336 47 612 92q86 -31 86 -94q-12 -80 -100 -135h-111q-72 -4 -125 -16h-13q-73 0 -202 -33q-123 -12 -256 -23q1 -15 1 -32q0 -122 -38 -326q16 -155 16 -248q0 -87 -14 -117l17 -184 q-26 -210 -101 -210q-5 0 -10 1q-5 -3 -11 -2q-19 0 -36 33q-12 74 -12 240q6 47 5 104q0 134 -30 328q23 330 47 397q-215 -4 -323 -12q-123 2 -125 53z" />
<glyph unicode="u" horiz-adv-x="1376" d="M106 594q-17 55 -17 119q0 109 50 248q43 242 64 313q55 66 96 72q6 1 11 0q50 0 49 -49q0 -7 -1 -15q6 -12 2 -33q-2 -4 -57 -309q-51 -115 -51 -219q0 -21 2 -41q-7 -39 -7 -77q0 -169 144 -306q129 -74 310 -74q53 0 110 6q14 -1 28 -1q156 0 228 155q36 78 36 270 q0 40 -1 84q4 26 4 86q0 72 -6 185q-12 217 -39 270q-3 11 -3 20q0 30 29 58q43 39 84 53q58 0 123 -246q12 -254 13 -383q-41 -285 -123 -551q-133 -180 -435 -180h-20h-34q-258 0 -464 88q-132 167 -131 365q-1 45 6 92z" />
<glyph unicode="v" horiz-adv-x="1226" d="M53 1249q-5 15 -5 30q0 31 24 56q31 35 82 47q2 0 3 1q28 0 54 -44q47 -68 123 -313q115 -274 229 -762l387 754q-8 29 -7 56q0 47 22 93l84 168q31 63 79 70q29 -6 50 -27q23 -23 20 -61q-4 -25 -14 -57q-39 -86 -105 -211q-80 -188 -272 -578q-25 -123 -47 -221 l-135 -213q-63 -63 -121 -70h-4q-25 0 -47 39q-4 16 -58 160q-16 131 -61 258q-123 203 -154 416q-123 331 -127 409z" />
<glyph unicode="w" horiz-adv-x="1703" d="M53 1260q0 39 45 81q47 43 76 48h4q31 0 51 -50q33 -47 47 -141q18 -74 52 -149q61 -201 118 -615q178 309 308 557q-8 39 -9 73q0 50 19 89q16 82 51 127q28 60 79 60q3 0 5 -1q53 -4 98 -102q12 -70 84 -305q84 -334 244 -586q8 313 121 668q-19 49 -19 100q0 26 5 51 q16 98 41 152q51 78 96 82h5q71 0 71 -84l-1 -3q-1 -3 -2.5 -9.5t-1.5 -12.5q-53 -217 -147 -731q-23 -186 -51 -315q-12 -111 -41 -211q-60 -84 -109 -84h-4q-37 0 -74 41q-43 74 -122 227q-125 465 -265 752q-86 -225 -168 -641q-53 -47 -61 -113q-12 -31 -33.5 -80 t-23.5 -55q-72 -82 -125 -94q-37 3 -56 73q-10 16 -30 115l-78 293q-61 211 -135 840q-64 -48 -64 -47z" />
<glyph unicode="x" horiz-adv-x="1247" d="M59 78q6 92 306 534l-277 662q6 39 29 90q18 41 53 41q8 0 18 -2h5q19 0 45 -23l116 -166q74 -131 219 -299q104 63 220 218q131 137 188 210q37 33 66 39q27 0 45 -22.5t16 -61.5q0 -23 -31 -71q-6 -8 -17 -26.5t-37 -57.5l-48 -74l-313 -315q460 -490 460 -657 q0 -27 -12 -46q-4 -29 -33 -74q-24 -35 -51 -35q-8 0 -16 3q-2 0 -5 -1q-19 0 -36 23q-18 25 -152 176q-27 100 -203 398q-152 -84 -262 -301q-47 -49 -151 -187q-23 -60 -66 -60q-4 0 -8 1q-27 6 -47 26q-23 23 -21 58z" />
<glyph unicode="y" horiz-adv-x="1347" d="M72 1051q-1 23 -1 44q0 246 126 300q18 -10 61 -43q27 -18 23 -58q-2 -10 -6.5 -46t-8.5 -60q-10 -80 -8 -86q-1 -17 -1 -34q0 -141 93 -218q102 -84 244 -133q154 39 254 90q119 96 190 213l-34 229q12 57 45 90q27 51 88 52h2q78 0 78 -222q0 -70 34 -227 q15 -66 15 -125q0 -73 -23 -131q-37 -261 -123 -498q-128 -146 -401 -145h-23q-84 -29 -218 -29h-25l-195 76q-51 33 -45 66q0 47 27 94q23 40 71 39h13q0 6 12 2q210 -72 339 -72q31 0 58 4q52 -10 92 -9q62 0 93 24q47 37 110 165l47 310q-268 -182 -543 -240 q-213 25 -331 205q-129 129 -129 362v11z" />
<glyph unicode="z" horiz-adv-x="1378" d="M82 1241q-2 11 -2 22q0 40 26 66q35 35 93 47q5 1 14 1q21 0 178 -9q133 -4 375 -45q177 34 270 34q74 0 97 -22q18 3 32 3q76 0 74 -64q-12 -51 -39 -109q-45 -106 -285 -354q-144 -169 -528 -682q145 92 422 98q185 47 338 48q79 0 149 -13h4q39 0 35 -72 q-10 -72 -96 -133q-14 -2 -46 -2q-74 0 -220 11q-77 2 -148 2q-468 0 -655 -88q-62 16 -62 70q0 5 1 11q-3 11 -3 23q0 37 31 80q43 80 107 162q90 59 147 143q236 264 527 659q-244 51 -411 52q-133 0 -218 -33q-121 12 -152 33q-57 20 -55 61z" />
<glyph unicode="{" horiz-adv-x="1073" d="M31 602q18 106 125 156l118 30q94 -6 146 27q-29 86 -47 125q-29 86 -29 119q-8 137 82 213t279 88q20 55 28 55q53 0 53 -80q6 -66 -49 -98q-16 -12 -98 -51q-80 -39 -104 -41q-10 -14 -11 -23q6 -47 51 -133q45 -88 27 -141q12 -74 -35 -150q76 -53 88 -161 q-16 -41 -49 -156q-31 -104 -26 -160q8 -23 22 -22q45 6 119 37q68 29 123 34q33 -4 53 -24q23 -23 16 -58q-10 -70 -141 -161q-121 -29 -207 -35q-80 0 -133 39q-33 63 -24 137q-12 68 30 174q28 120 19 160q-43 16 -101 20q-23 4 -49 2q-23 -2 -47 -2q-204 -24 -229 80z " />
<glyph unicode="|" horiz-adv-x="530" d="M96 -264q4 10 8 31q68 329 19 663q23 457 80 803q-31 92 -2 194q12 59 38.5 87t71.5 26q23 4 36 -17.5t15 -66.5q-4 -31 -16 -344q2 -139 -4 -608q-10 -231 -68 -580q29 -20 33 -141q-53 -111 -131 -105q-72 5 -80 58z" />
<glyph unicode="}" horiz-adv-x="1081" d="M150 1219q18 53 92 106q127 102 274 102q78 -18 117 -75.5t45 -132.5q-16 -63 -37 -156q-41 -109 -23 -162q45 -29 80 -22q12 -2 56 -2h57q123 0 177 -25t40 -74q-6 -37 -35 -82q-31 -49 -73 -49q-37 -14 -129 -16l-140 -45q33 -76 41 -125q41 -70 35 -123 q-25 -248 -340 -401q-43 49 -51 49q-53 0 -53 77q6 61 41 97q29 18 112 47q76 18 94 55q14 8 15 19q4 43 -37 133q-37 84 -41 141q-4 68 43 145q-88 25 -72 162q-6 47 19 156q23 100 26 164q0 20 -18 20q-45 4 -125 -47t-115 -22q-69 -6 -75 86z" />
<glyph unicode="~" horiz-adv-x="1277" d="M63 629q-2 39 31 88q41 66 129 121q90 55 180 28q82 -6 242 -96q162 -92 191 -57q53 0 86 123q33 125 120 102q74 0 74 -78q-12 -98 -119 -244q-106 -147 -217 -98q-84 -6 -211 92.5t-227 46.5q-59 10 -111 -57q-53 -68 -104 -53q-25 0 -47 31q-21 20 -17 51z" />
<glyph unicode="&#xa1;" horiz-adv-x="491" d="M57 -102q6 115 41 239q61 213 58 230q4 102 43 237q51 143 135 131q43 0 45 -59q-6 -65 -37 -203q-10 -121 -115 -420q33 -33 -8 -149q-28 -80 -110 -74q-27 -4 -40.5 12.5t-11.5 55.5zM238 1010q14 78 34 129q25 66 93 59q27 2 40 -14.5t15 -48.5q-2 21 -9 -34 q-2 -16 -3 -38q0 -12 -2 -29q-2 -35 -37 -75.5t-66 -30.5q-27 -2 -43 17.5t-22 64.5z" />
<glyph unicode="&#xa2;" horiz-adv-x="1267" d="M82 647q33 309 311 504q199 199 461 168q49 137 102 266q53 70 84 60q29 6 47.5 -18.5t18.5 -51.5q6 -45 -82 -252q39 -25 106 -63q78 -72 66 -109q-6 -35 -35 -78q-29 -45 -67 -31q-10 -6 -80 52q-96 31 -96 47l-205 -709q-43 36 45 48q30 4 76 5q90 2 127 -18 q66 -23 59 -68q2 -43 -28.5 -84t-69.5 -47q-23 -12 -74 -14q-218 -18 -338 25l-94 -291q-74 -33 -121 -43q-25 2 -43 30q-20 31 -23 54q0 39 123 260q-278 184 -270 358zM279 731q-6 -135 178 -176q39 88 303 524q-119 39 -258 -35q-137 -74 -180 -157q-66 -80 -43 -156z " />
<glyph unicode="&#xa3;" horiz-adv-x="1363" d="M160 82q18 114 123 160q25 6 75 12q39 23 41 76q-6 63 -61 207q-45 -18 -62 -9q-31 6 -30 54q6 43 24 92q-66 117 -55 241q8 188 170 322q156 141 328 113q96 37 151 -35q53 -68 70 -141q16 -207 -131 -209q-33 -4 -47.5 12t-12.5 55q-6 12 0.5 41t4.5 35q0 57 -66 51 q-98 12 -162 -55q-100 -63 -114 -146q8 -59 114 -264q225 8 389 11q90 16 101 -50q-3 -49 -31 -92q-27 -41 -92 -45q-23 2 -107 2q-82 0 -96 2l-117 -12q37 -72 25 -139q6 -66 -29 -129q104 6 168 2l293 -6q143 0 197 -17q66 -14 65 -65q-12 -96 -108 -150q-14 0 -158 8 q-109 2 -408 -26q-287 -29 -364 26q-76 -12 -88 68z" />
<glyph unicode="&#xa4;" horiz-adv-x="1298" d="M164 997q6 59 43 99q41 45 67 45q18 -2 54 -31q41 -51 141 -125q121 82 190 107q59 -8 154 -64q178 125 211 129q25 0 51 -22q25 -23 19 -64q-6 -47 -58 -113q-53 -27 -98 -63q47 -78 35 -199q10 -94 -33 -202q104 -114 117 -160q0 -45 -41 -90q-37 -41 -74 -47 q-41 2 -182 178q-53 -25 -88 -23q-72 -12 -148 13q-162 -176 -217 -152q-31 -2 -49 18.5t-29 63.5q6 57 158 172q-66 102 -68 184q0 78 21 133q-188 182 -176 213zM508 735q-6 -70 63 -108q63 -37 129 -64q94 0 105 76q-8 127 -150 201q-76 8 -112 -21q-47 -31 -35 -84z" />
<glyph unicode="&#xa5;" horiz-adv-x="1624" d="M160 418q-10 86 86 133q98 10 241 10q80 4 115 0q-354 545 -360 670q-6 43 28 84q33 39 76 43q43 -4 70 -41q20 -23 102 -225q131 -225 264 -482q391 510 492 785q51 10 94 10q31 0 51.5 -20.5t20.5 -49.5q6 -51 -191 -305q-74 -125 -276 -389q387 -49 454 -25 q39 2 56.5 -14t13.5 -51q-9 -71 -92 -123q-4 0 -176 14q-55 -25 -410 -90l31 -39q121 0 321 9q104 6 99 -56q-16 -115 -113 -157q-63 0 -201 14q-61 -10 -92 -10q0 -55 -39 -99q-25 -45 -73 -39q-27 -2 -47.5 29t-32.5 92q-22 -15 -172 -55q-111 -6 -189 -12q-66 4 -65 55 q-4 104 78 129q66 49 190 59q84 10 156 9l8 84q-375 -41 -436 -23q-43 -10 -63.5 9.5t-18.5 66.5z" />
<glyph unicode="&#xa6;" horiz-adv-x="485" d="M137 1454q6 49 33 96q23 45 80 39q45 2 65 -43q0 -4 1 -34.5t1 -55.5l7 -115q-14 -72 10 -235q25 -160 2 -215q-6 -37 -41 -82q-33 -43 -82 -31q-45 0 -51 62q-6 37 -6 202q40 338 -19 412zM176 -276q6 117 10 170q8 90 4 161q0 10 -1 27.5t-3 47.5t-4 54q-6 98 0 109 q2 41 35 73.5t53 32.5q29 -4 45 -47q20 -125 35 -237l-8 -156q40 -316 -129 -295q-41 -12 -37 60z" />
<glyph unicode="&#xa8;" horiz-adv-x="1159" d="M215 1565q6 39 31 139q23 115 108 115q68 -9 62 -99q6 -10 -6 -96q-33 -92 -31 -100q-27 -53 -82 -58q-82 7 -82 99zM745 1591q0 78 21 146q59 80 106 88q68 6 66 -80q0 -4 -2 -16.5t-4 -29t-6 -32.5q-12 -57 -8 -76q0 -35 -31 -69.5t-76 -48.5q-33 2 -49 40 q-23 37 -17 78z" />
<glyph unicode="&#xa9;" horiz-adv-x="2131" d="M233 580q-59 242 93 471q100 231 247 319q78 23 142 53q25 12 67 25q20 10 72 20q90 27 223 29q344 10 647 -223q195 -190 238 -582q-43 -291 -338 -624q-276 -127 -670 -123q-322 -12 -577 104q-185 242 -144 531zM416 659q-45 -260 153 -444q201 -111 422 -109 q402 43 596 160q195 225 170 383q14 78 2 142q-63 209 -259.5 358t-436.5 111q-330 68 -500 -164q-162 -108 -147 -437zM733 621q-6 160 103 284q143 129 268 129q178 12 172 -73q0 -31 -21 -82q-33 -45 -81 -43q-6 -2 -39 2q-23 2 -50 12q-70 -6 -122 -57q-55 -53 -48 -119 q-12 -115 177 -119q2 -4 49 8t63 2q55 -4 56 -76q10 -80 -55.5 -109.5t-205.5 -8.5q-102 -33 -188 43q-84 76 -78 207z" />
<glyph unicode="&#xab;" horiz-adv-x="1603" d="M203 375q-6 57 71 123q33 25 236 143q233 143 235 170q29 2 46.5 -16.5t19.5 -55.5q-6 -63 -51 -108q-47 -47 -146 -121q-123 -47 -145 -90q109 -49 205 -125q121 -104 125 -168q2 -39 -39 -84q-43 -47 -76 -41q-45 -8 -227 164q-209 104 -240 166q-10 18 -14 43z M848 401q4 55 49 105q39 33 227 145q203 94 199 109q37 -6 57.5 -33t20.5 -55q-6 -61 -82 -131q-76 -25 -201 -88q131 -100 150 -152q115 -86 114 -149q-6 -43 -26 -84q-35 -49 -88 -54q-25 -4 -213 123q-187 126 -185 209q-26 28 -22 55z" />
<glyph unicode="&#xad;" horiz-adv-x="1050" d="M227 682q-27 106 111 147q25 12 131 7l436 -107q11 57 17 57q4 0 8 -26q-25 -72 -103 -139q-12 14 -165 51q-367 49 -379 -68q-70 19 -56 78z" />
<glyph unicode="&#xae;" horiz-adv-x="2107" d="M233 571q-61 244 91 467q102 231 243 316q88 27 142 51l65 22q23 12 72 25q88 25 223 25q338 12 637 -220q190 -187 233 -571q-47 -291 -331 -618q-281 -129 -664 -125q-317 -8 -569 104q-185 239 -142 524zM414 651q-43 -258 153 -436q199 -113 414 -109q414 43 598 166 q186 223 164 373q12 74 0 135q-63 205 -260 355q-195 147 -434 108q-322 68 -490 -164q-157 -106 -145 -428zM621 942q-14 82 57 129q74 49 227 57q94 39 205 29q113 2 213 -65q82 -57 88 -162q-12 -143 -164 -307q82 -147 64 -215q10 -45 -15 -91q-25 -47 -84 -36 q-31 4 -63 43q-40 68 -141 208q-16 -27 -93 -47q-4 -102 -18 -145q-20 -86 -96 -92q-51 6 -60 86q6 39 7 133q0 109 6 143q0 29 -11 111q-10 80 0 113q-6 33 5 63l-74 -23q-63 -6 -53 68zM915 666q158 88 189 88q111 63 137 125q-23 80 -178 77q-88 -12 -148 -10 q12 -159 0 -280z" />
<glyph unicode="&#xaf;" horiz-adv-x="1214" d="M2 1341l102 13l852 137l5 -277z" />
<glyph unicode="&#xb0;" horiz-adv-x="1026" d="M127 909q16 195 119 246q0 90 143 154q102 61 178 51q145 -18 228 -109q78 -86 96 -213q-20 -137 -154 -303q-132 -166 -295 -104q-127 -6 -209 94q-83 102 -106 184zM309 963q6 -68 56 -109q52 -43 129 -43q84 -10 145 61q59 68 76 138q-10 63 -66 110q-51 23 -131 23 q-31 6 -92 -21q-33 -23 -98 -47q-23 -71 -19 -112z" />
<glyph unicode="&#xb1;" horiz-adv-x="1019" d="M127 694q4 43 25 78q25 41 88 53q31 4 92 -2q66 -6 78 0l2 19q0 6 -1 34.5t-1 49.5q0 53 -7 75q0 45 39 82q41 39 84 56q66 -12 84 -160q-14 -20 -20 -158q63 0 133 2q18 2 58 5t61 6q98 -15 98 -80q-12 -82 -96 -127q-111 6 -223 18q-43 -20 -56 -96q-12 -78 -10 -92 q-12 -111 -111 -105q-47 4 -49 76q-4 8 25 168q-106 16 -232 45q-33 0 -48 13t-13 40zM131 94q6 111 100 142q113 10 211 6l336 51q76 -47 86 -107q-10 -117 -110 -129q-2 -14 -152 -20q-14 0 -37.5 -1t-65.5 -2t-75 -1q-117 -31 -205 -25q-70 0 -88 86z" />
<glyph unicode="&#xb4;" horiz-adv-x="745" d="M190 1520q-8 41 35 98q61 102 162 297q66 47 109 53q33 2 49 -17.5t14 -64.5q-6 -39 -100 -217l-131 -172q-35 -37 -80 -47q-66 7 -58 70z" />
<glyph unicode="&#xb6;" horiz-adv-x="1927" d="M141 709q-33 221 178 411q301 272 791 252q301 -2 571 -102q78 -6 116 -21.5t36 -42.5q6 -47 -41 -88q-43 -37 -84 -51q-6 4 -25 8q-356 90 -536 96q-438 -59 -662 -112q-184 -195 -163 -295q2 -150 149 -256q143 -106 311 -109q-18 285 15 519q-14 141 98 178 q59 -14 53 -86q41 -244 19 -607q10 -20 18 -67q4 -78 -57 -123l14 -342q-62 -126 -49 -125q-33 -92 -94 -98q-37 -2 -55.5 21.5t-16.5 70.5q-6 57 27 442q-248 -8 -396 142q-248 188 -217 385zM1104 -299q10 160 63 367q57 223 -20 389q16 82 16 280q0 184 -43 244 q12 37 45 76q35 41 84 49q33 -2 47 -55q10 -43 -2 -183q68 -399 39 -503q-59 -408 -59 -648q-37 -72 -113 -77q-27 -2 -40 13t-17 48z" />
<glyph unicode="&#xb7;" horiz-adv-x="393" d="M92 711q-14 27 31 100q45 72 106 47q27 4 41.5 -18.5t16.5 -71.5q-8 -18 -49 -100q-37 -74 -86 -35q-66 2 -60 78z" />
<glyph unicode="&#xbb;" horiz-adv-x="1427" d="M190 700q6 47 46 91q41 43 65 51q25 4 82 -47q41 -18 90 -54q16 -8 168 -94q96 -31 139 -98q43 -40 43 -80q4 -41 -39 -92q-57 -70 -270 -258q-244 -98 -274 -142q-53 10 -47 82q-8 57 36 101q74 74 154 137q166 119 176 119q-88 63 -182 98q-119 76 -144 115 q-37 36 -43 71zM719 784q0 35 26 78q25 39 86 51q31 2 267 -170q233 -172 184 -186q25 -40 25 -61q-6 -43 -43 -101q-37 -59 -211 -168q-207 -176 -224 -188q-37 -4 -53 19.5t-12 76.5q6 63 113 170q117 82 202 156q-37 12 -176 104q-154 111 -172 180q-16 12 -12 39z" />
<glyph unicode="&#xbf;" horiz-adv-x="1325" d="M150 102q-8 209 188 289q86 70 293 141l356 86q-31 35 -26 70q-6 45 22 86q25 49 80 49q41 -4 74 -51q33 -49 30 -117q12 -135 -219 -249q-31 -12 -289 -123q-279 -59 -303 -99q-14 2 -14 -8q-18 -139 342 -201q201 37 367 134q33 8 41 8q29 -2 47 -25q18 -20 20 -61 q6 -43 -45 -94q-68 -51 -246 -113q-143 -6 -264 -4q-162 23 -287 43q-149 106 -167 239zM920 1042q8 31 41 76q25 68 32 72q35 41 66 37q63 -6 61 -76q-6 -39 -41 -113q-39 -51 -94 -55q-59 0 -65 59z" />
<glyph unicode="&#xc0;" horiz-adv-x="1058" d="M31 53q0 41 213 457q31 268 176 569q6 37 37 133q29 80 63 144q37 68 103 53q45 0 63 -61q55 -86 94 -252q25 -215 31 -215q51 -248 195 -729q23 -12 22 -23q2 -47 -33 -92q-37 -45 -77 -49q-66 6 -123 151q-29 16 -90 23q-34 -3 -87 0q-57 4 -86 -2l-311 43 q-27 -127 -53.5 -179.5t-58.5 -35.5q-68 -11 -78 65zM299 293l512 39q-147 260 -236 749q-32 -108 -276 -788zM334 1909q-6 51 39 96t80 45q29 -2 61 -51q23 -53 104 -170q27 -70 78 -141q18 -47 17 -64q-6 -45 -35 -92q-31 -53 -70 -39q-27 -4 -53 23q-43 23 -131 202 t-90 191z" />
<glyph unicode="&#xc1;" horiz-adv-x="1073" d="M14 43q6 66 226 489q37 250 145 478q33 98 47 192q47 96 86 144q37 46 86 67q45 -6 66 -61q55 -96 86 -236q18 -201 41 -233q114 -273 221 -793l-4 39q0 -43 -33 -96q-35 -55 -88 -47q-47 0 -96 180q-43 -10 -117 -4q-33 -8 -80 -8q-51 0 -82 10l-289 -4 q-63 -174 -145 -189q-72 19 -70 72zM293 291l397 -8q-63 332 -194 766q39 -76 -203 -758zM541 1556q-8 43 34 99q61 102 162 297q70 49 109 55q35 4 50 -17.5t13 -66.5q-8 -39 -100 -217l-131 -170q-37 -40 -80 -49q-65 6 -57 69z" />
<glyph unicode="&#xc2;" horiz-adv-x="1095" d="M41 59q-6 33 176 521l154 505q74 45 94 119q25 92 76 152q53 61 88 47q39 0 73 -66l58 -221q20 -190 57 -233l225 -654q-8 -80 -8 -100q0 -45 -37 -98q-33 -49 -77 -39q-57 0 -103 178q-39 -16 -115 -2q-27 -12 -73 -4q-53 10 -88 -2l-301 -2q-59 -209 -127 -185 q-80 4 -72 84zM238 1538q-4 39 106 244q115 115 150 178q33 61 96 80q41 4 250 -205t133 -231q-6 -35 -33 -82q-29 -49 -66 -35q-51 0 -151 153q-94 55 -152 166q-37 -92 -86 -151q-33 -82 -77 -129q-45 -49 -103 -58q-27 -4 -49 17q-24 20 -18 53zM369 324l393 -25 q-104 274 -131 711q-84 -35 -262 -686z" />
<glyph unicode="&#xc3;" horiz-adv-x="1153" d="M57 51q-2 49 230 471l119 541q66 74 90 131q25 88 73 143q53 59 76 70q45 2 68 -59q57 -86 80 -238q47 -164 47 -227q84 -246 207 -785l14 31q0 -39 -37 -90q-33 -43 -80 -53q-59 12 -110 155q-34 22 -93 19q-39 0 -94 -6q-57 -6 -80 8l-315 -8q-31 -156 -123 -185 q-66 19 -72 82zM178 1550q-12 90 121 174q86 47 195 60q72 -14 168 -80t182 -35q39 2 100 55q41 35 74 60q33 -6 53.5 -33t20.5 -55q-2 -14 -19 -54q-33 -61 -115 -104q-74 -41 -157 -59q-72 -16 -180 47q-104 59 -166 39q-68 6 -119 -33q-49 -39 -94 -45q-37 -2 -53.5 14 t-10.5 49zM285 334l485 45q-55 240 -195 631q1 -33 -290 -676z" />
<glyph unicode="&#xc4;" horiz-adv-x="1112" d="M43 55q8 43 236 410q37 287 170 553q-14 100 20 186q29 96 82 152q55 59 84 53q45 6 67 -66q45 -88 72 -243q74 -195 53 -215q109 -248 193 -740q27 -6 27 -16q0 -47 -31 -88q-31 -39 -80 -51q-61 0 -113 149q-37 18 -108 19q-18 4 -80 -2q-59 -6 -84 10l-315 -10 q-66 -156 -109 -176q-74 -1 -84 75zM270 1565q14 76 29 139q23 115 111 115q68 -9 61 -99q8 -12 -6 -96q-35 -94 -33 -100q-27 -53 -80 -58q-82 7 -82 99zM322 324l423 2q-90 266 -124 667q-66 -28 -299 -669zM801 1591q0 78 20 146q57 78 107 88q68 6 65 -80 q0 -20 -12 -77.5t-8 -76.5q0 -35 -31 -69q-31 -33 -78 -49q-33 2 -49 40q-20 35 -14 78z" />
<glyph unicode="&#xc5;" horiz-adv-x="1163" d="M33 61q2 29 217 517q86 207 149 471l70 151q23 94 70 156q49 66 84 47q49 8 69 -60l90 -229q43 -203 31 -231q115 -233 291 -797q-70 51 -70 43q-2 -45 -39 -86q-31 -37 -75 -57q-33 -2 -55.5 39t-39.5 122q-51 12 -110 9q-33 4 -99 -2q-57 -6 -77 6l-277 20 q-80 -199 -156 -198q-70 -10 -73 79zM299 1812q14 193 119 246q0 90 143 154q104 61 178 49q147 -18 228 -107q78 -86 96 -215q-20 -135 -154 -301q-132 -166 -295 -104q-127 -6 -208 94q-84 102 -107 184zM322 406l403 -103q-35 287 -199 684q27 -18 -204 -581zM485 1870 q-6 -68 54 -111q59 -45 120 -47q86 2 152 60q61 53 82 129q-14 68 -72 114q-63 41 -112 39q-55 -4 -111 -20l-92 -62q-27 -67 -21 -102z" />
<glyph unicode="&#xc6;" horiz-adv-x="1789" d="M49 41q-2 20 107 233q80 287 329 748q-41 170 -16 176q27 55 80 148q41 68 82 59q49 0 74 -74q33 -74 63 -248q70 -174 55 -223q33 188 37 254q-31 25 -37 72q6 43 31 78q25 33 64 57q29 20 63 22q20 -2 31 -10q59 12 506 62q115 -29 115 -21q0 2 -3 4q72 -6 60 -65 q4 -78 -86 -101q-8 -12 -177 -30q-152 16 -413 -43q16 -59 -45 -389q203 63 417 102q98 -33 89 -111q0 -90 -95 -110q-16 -6 -120 -25q-211 -23 -316 -16q-3 -37 0 -80q-4 -180 56.5 -264t185.5 -76l207 88q160 68 258 31q72 10 82 -66q-12 -82 -101 -137q-12 3 -98 0 q-109 -20 -186 -59q-184 -41 -220 -54q-123 0 -194.5 65.5t-122.5 168.5l-592 -6q16 -137 -6 -144q-39 -78 -104 -88q-66 11 -60 72zM352 309l406 37q-102 246 -140 598q-82 -33 -266 -635z" />
<glyph unicode="&#xc8;" horiz-adv-x="1099" d="M59 387q0 199 47 377q78 303 70 379q-49 12 -49 51q8 102 84 129q41 39 76 33q20 4 30 -10q258 80 664 40q12 2 15 -12t-1 -43q12 -74 -67 -123q-55 -4 -183 -26q-106 8 -421 -23q0 -59 -13 -348q120 12 381 55q82 -41 88 -112q-4 -94 -80 -115q-10 0 -28.5 -2t-48 -3 t-54.5 -3q-43 -2 -331 -33q6 -41 4 -72q-23 -332 235 -338q55 6 219 66q156 57 242 63q51 -8 72.5 -28.5t11.5 -52.5q18 -115 -127 -146q-109 -29 -250 -37q-51 -35 -104.5 -47t-116.5 -16q-347 8 -365 397zM326 1884q-6 53 39 98q46 46 79 43q31 -2 66 -51q27 -68 100 -170 q27 -70 78 -141q18 -45 19 -61q-6 -43 -35 -95q-31 -55 -72 -39q-23 -2 -49 25q-51 27 -135 201q-88 182 -90 190z" />
<glyph unicode="&#xc9;" horiz-adv-x="1032" d="M59 473q-27 94 23 328q37 203 37 358q-14 -4 -19.5 6.5t-3.5 36.5q10 98 82 123q35 29 76 35q12 0 29 -12q297 6 630 77q47 -37 43 -90q14 -84 -69 -114q-43 -12 -176 -11q-98 -29 -408 -90q-4 -51 -94 -338q184 47 412 66q68 -8 97.5 -30.5t24.5 -63.5q4 -74 -98 -115 q-8 -2 -123 -23q-123 -20 -282 -18q-31 -33 -29 -72q-8 -166 43 -244.5t164 -72.5q86 -6 229 43q141 47 258 51q82 -4 84 -61q4 -100 -127 -166q-154 -23 -231 -39q-63 -8 -119 -29q-47 -10 -80 -15l-47 -7q-176 -10 -257 111.5t-69 375.5zM465 1520q-10 45 33 98 q61 102 161 297q66 47 109 53q35 4 51.5 -16.5t14.5 -65.5q-6 -33 -103 -217l-131 -172q-35 -37 -80 -47q-63 7 -55 70z" />
<glyph unicode="&#xca;" horiz-adv-x="1052" d="M92 762q74 262 45 379q-27 18 -28 53q2 117 81 129q37 43 80 37q14 0 27 -14q324 66 668 0q13 32 19 -13q1 -5 1 -10q-16 -78 -92 -102q-35 -10 -164 -17q-108 -12 -405 0q-16 -111 -66 -411q121 16 447 30q53 18 63 -69q-10 -86 -100 -111q-20 -8 -136 -18 q-127 -10 -284 -33q-25 -33 -23 -66q9 -283 240 -344q25 4 235 51q174 39 209 74q102 10 97 -59q0 -131 -134 -168q-109 -6 -233 -35q-43 -14 -117 -43q-86 -8 -119 -16q-315 43 -294 463q-62 120 -17 313zM201 1538q-4 39 106 244q115 115 150 178q35 61 94 80 q41 4 250 -205q210 -210 135 -231q-6 -35 -33 -82q-29 -49 -67 -35q-47 0 -152 153q-88 55 -149 166q-31 -80 -89 -151q-33 -82 -77 -129q-45 -49 -101 -58q-27 -4 -49 17q-24 20 -18 53z" />
<glyph unicode="&#xcb;" horiz-adv-x="1071" d="M80 496q-28 71 0 325q106 211 86 322q-45 12 -39 57q10 90 84 115q37 40 68 43q20 2 32 -12q322 55 625 32q29 8 42 -4t11 -47q2 -78 -82 -117q-25 -3 -190 13q-70 -27 -402 -68q10 -59 -61 -348q160 18 453 6q59 10 67 -59q2 -74 -82 -121q-43 0 -123 -17 q-90 -18 -348 -12q16 -35 21 -78q-46 -298 215 -325q76 2 248 30q174 29 219 68q53 2 77.5 -9t20.5 -36q3 -138 -123 -148q-131 -41 -250 -63q-45 -20 -108 -35q-74 -20 -119 -14q-360 -49 -342 502zM227 1565q6 39 31 139q23 115 109 115q68 -9 61 -99q6 -10 -6 -96 q-33 -92 -31 -100q-27 -53 -82 -58q-82 7 -82 99zM758 1591q0 78 20 146q59 80 107 88q68 6 65 -80q0 -4 -2 -16.5t-4 -29t-6 -32.5q-12 -57 -8 -76q0 -35 -31 -69.5t-76 -48.5q-35 4 -51 40q-20 35 -14 78z" />
<glyph unicode="&#xcc;" horiz-adv-x="731" d="M45 35q2 102 64 127q45 31 159 37q8 147 -22 491q68 328 65 447q-31 20 -65 14q-41 0 -51 2q-76 4 -106 26.5t-15 63.5q-10 49 18 92q31 45 70 33q41 0 114 -6q78 -6 117 10l146 21q83 -22 110 -31q57 -16 51 -68q12 -109 -90 -131q-27 -8 -86 -6q0 -2 -65 -6 q41 -588 -27 -934q88 10 176 -4q41 10 60.5 -10.5t19.5 -71.5q12 -88 -90 -125q-49 -8 -141 -26q-256 -20 -342 -9q-64 7 -70 64zM123 1888q-6 51 39 97q47 47 80 45q33 -4 63 -52q23 -57 103 -172q25 -63 77 -139q20 -51 19 -63q-6 -41 -35 -93q-31 -55 -72 -38 q-25 -4 -51 22q-45 25 -133 203t-90 190z" />
<glyph unicode="&#xcd;" horiz-adv-x="729" d="M27 41q-12 82 65 129q6 2 27.5 8l51.5 14.5l60 16.5q-4 195 -22 508q86 274 67 440h-57q-37 -8 -49 -6q-117 -14 -141 86q6 51 30 94q27 45 86 39q45 0 109 10q78 12 111 -8l153 -4l113 -6q49 -8 45 -62q4 -96 -88 -147q-25 -2 -80 -2q-6 2 -66 2q-82 -586 -61 -979 q100 41 211 57q76 -6 76 -88q-4 -121 -115 -120q-16 -23 -111 -21q-264 -29 -352 -31q-35 -4 -51 12.5t-12 57.5zM293 1520q-10 45 33 98q61 102 161 297q66 47 109 53q33 2 49.5 -17.5t13.5 -64.5q-6 -39 -100 -217l-131 -172q-35 -37 -80 -47q-63 7 -55 70z" />
<glyph unicode="&#xce;" horiz-adv-x="884" d="M51 1538q-2 37 109 244q111 111 147 178q33 61 96 80q41 4 250.5 -205t132.5 -231q-6 -35 -32 -82q-29 -49 -66 -35q-49 0 -151 153q-94 55 -152 166q-37 -92 -86 -151q-33 -82 -78 -129q-45 -49 -102 -58q-25 -4 -47 17q-27 22 -21 53zM78 43q-4 88 51 125q45 20 162 16 q0 147 43 455q-68 336 -29 518q-14 0 -37 -2h-51q-72 -2 -104.5 18.5t-26.5 65.5q0 45 35 86q37 43 67 49q27 -4 111 -4q86 0 115 2l143 4q72 -2 119 -16q47 -18 47 -57q-4 -121 -92 -146q-45 0 -80 -2q-6 0 -70 -6q-39 -551 -41 -973q104 57 207 49q66 0 66 -94 q12 -100 -113 -129q-18 0 -121 -20q-276 20 -342 -11q-75 6 -59 72z" />
<glyph unicode="&#xcf;" horiz-adv-x="833" d="M55 1565q6 39 31 139q23 115 111 115q68 -9 61 -99q8 -12 -6 -96q-35 -94 -33 -100q-27 -53 -82 -58q-82 7 -82 99zM70 39q4 90 65 131q51 18 152 25q12 184 -15 471q35 299 45 475q-4 14 -45 18q-27 -6 -47 -6q-137 4 -137 88q0 41 37 84q33 37 68 41q55 4 118 14 q76 12 115 -10l147 -14q82 8 107 6q57 -8 53 -55q0 -127 -84 -133q-35 -18 -90 -19h-61q-49 -635 -17 -905q61 -37 164 -14q71 -12 68 -86q20 -117 -88 -144q-14 -2 -125 -6q-262 -72 -353 -35q-61 -2 -77 74zM588 1591q0 78 20 146q57 80 105 88q71 6 67 -80q0 -4 -2 -16.5 t-4 -29t-6 -32.5q-12 -57 -8 -76q0 -35 -31 -69q-31 -33 -78 -49q-33 2 -49 40q-20 35 -14 78z" />
<glyph unicode="&#xd1;" horiz-adv-x="1161" d="M78 45q-14 147 59 399q-4 315 -2 398l-18 182q18 332 141 328q29 12 55 -23q53 -74 88 -158q70 -123 88 -151q104 -193 437 -645q-59 219 -29 663q-2 76 -2 117q4 68 23 115q18 111 106 116q63 -8 63 -81q-2 -102 -2 -445q0 -283 -22 -475q-6 -102 -23 -229 q-8 -39 -36 -88q-45 -57 -91 -64q-20 8 -49 35l-188 246q-117 260 -412 637q-6 -211 49 -623q-49 -53 -59 -113q2 -68 -16 -125q-41 -104 -105 -98q-55 6 -55 82zM170 1550q-12 90 123 174q84 47 192 60q72 -14 168.5 -80t182.5 -35q39 2 100 55q41 35 74 60q31 -6 51 -33 t20 -55q-4 -23 -16 -54q-37 -63 -115 -104q-72 -39 -157 -59q-72 -16 -181 47q-106 61 -168 39q-63 6 -116.5 -33t-94.5 -45q-37 -2 -53 14t-10 49z" />
<glyph unicode="&#xd2;" d="M41 592q0 203 80 346q80 233 248 279q70 162 354 151q233 -6 410 -250q184 -166 118 -471q59 -279 -116 -444q-139 -219 -494 -189q-260 -57 -416 125q-174 197 -184 453zM233 666q-37 -199 148 -328q147 -162 332 -162q203 6 278 125q77 120 99 320q27 264 -123 368 q-150 102 -377 180l-164 -69q-181 -153 -193 -434zM391 1888q-6 51 39 97q47 47 80 45q33 -4 63 -52q23 -57 103 -172q25 -63 78 -139q18 -47 16 -63q-6 -45 -33 -93q-31 -55 -71 -38q-25 -4 -52 22q-45 25 -133 203t-90 190z" />
<glyph unicode="&#xd3;" horiz-adv-x="1382" d="M39 553q23 231 117 420q84 172 243 274q47 102 293 154q283 -72 488 -215q160 -217 104 -510q18 -248 -123 -500q-225 -219 -446 -209q-285 27 -439 178q-249 195 -237 408zM213 657q-4 -176 190 -333q131 -123 312 -113q221 4 336 94q117 92 69 318q2 205 -119 354 q-121 147 -417 160q-25 10 -125 -66q-215 -95 -246 -414zM621 1520q-12 43 32 98q61 102 162 297q66 47 109 53q33 2 49 -17.5t14 -64.5q-6 -39 -100 -217l-131 -172q-35 -37 -80 -47q-63 7 -55 70z" />
<glyph unicode="&#xd4;" horiz-adv-x="1361" d="M47 555q29 252 121 408q61 178 225 251q66 145 295 146q310 34 461 -240q168 -131 129 -420q12 -342 -129 -514q-160 -172 -449 -190q-279 10 -462 131q-199 233 -191 428zM233 629q23 -201 123 -316q154 -115 346 -98q231 -6 328 104q96 113 78 302q-14 266 -119 395 q-100 123 -373 127q-63 2 -147 -51q-203 -184 -236 -463zM336 1538q-2 37 108 244q115 115 150 178q35 61 94 80q41 4 250 -205t133 -231q-8 -41 -31 -82q-29 -49 -67 -35q-51 0 -152 153q-90 55 -149 166q-35 -88 -88 -151q-33 -82 -78 -129q-45 -49 -103 -58 q-25 -4 -47 17q-26 22 -20 53z" />
<glyph unicode="&#xd5;" horiz-adv-x="1386" d="M45 590q2 168 113 362q55 184 243 310q41 88 312 133q238 -33 399 -205q225 -231 207 -490q-8 -299 -172 -487q-184 -250 -475 -176q-266 -74 -412 145q-178 146 -215 408zM213 662q-12 -190 182 -328q121 -139 332 -105q162 -33 277 84q113 115 124 312 q-31 246 -143 395q-111 147 -358 90q-76 27 -160 -39q-268 -143 -254 -409zM272 1550q-12 90 121 174q86 47 195 60q72 -14 168 -80t182 -35q39 2 100 55q55 47 72 60q33 -6 53.5 -33t20.5 -55q0 -14 -17 -54q-33 -61 -114 -104q-74 -41 -158 -59q-72 -16 -180 47 q-104 59 -166 39q-68 6 -121 -33q-55 -39 -92 -45q-37 -2 -53.5 14t-10.5 49z" />
<glyph unicode="&#xd6;" horiz-adv-x="1392" d="M80 621q-23 150 72 360q72 158 223 285q92 100 354 100q231 12 455 -192q162 -246 110 -451q10 -362 -118 -494q-162 -229 -484 -235q-268 -37 -422 153q-227 170 -190 474zM242 705q-25 -254 139 -383q139 -141 379 -123q145 27 272 137q121 104 92 264q27 233 -151 375 q-180 143 -381 168q-41 4 -119 -53q-235 -149 -231 -385zM362 1565q6 39 31 139q23 115 109 115q68 -9 61 -99q6 -10 -8 -96q-33 -88 -29 -100q-27 -53 -82 -58q-82 7 -82 99zM893 1591q0 78 20 146q57 78 107 88q68 6 65 -80q0 -20 -12 -77.5t-8 -76.5q0 -35 -31 -69 q-31 -33 -78 -49q-33 2 -49 40q-20 35 -14 78z" />
<glyph unicode="&#xd7;" horiz-adv-x="1060" d="M154 406q-2 43 45 90q14 35 178 157q-43 83 -98 148q-86 76 -89 121q0 39 35 96q35 55 86 35q25 6 56 -19q33 -25 100 -106q94 -72 98 -84q283 268 287 227q33 4 48 -18.5t15 -75.5q-6 -43 -86 -143q-55 -33 -127 -99q58 -49 105 -110q78 -59 80 -113q-6 -41 -31 -84 q-23 -39 -80 -43q-43 -4 -221 141q-102 -39 -238 -155q-59 -55 -88 -49q-31 -6 -59 18.5t-16 65.5z" />
<glyph unicode="&#xd8;" horiz-adv-x="1357" d="M39 567q37 203 117 394q117 176 221 292q70 94 340 95q72 20 135 2q27 96 39 120q35 88 96 70q76 14 80 -70q-14 -55 -49 -213q162 -74 211 -241q98 -133 86 -350q-33 -227 -170 -486q-166 -144 -443 -141q-63 -33 -143 -37q-6 -18 -20 -78q-29 -68 -45 -149 q-43 -86 -132 -97q-61 -8 -71 66q10 55 78 307q-143 104 -213 213q-74 115 -117 303zM242 655q0 -221 207 -397q132 283 344 780q-82 94 -197 101q-37 6 -145 -47q-181 -136 -209 -437zM731 203q205 8 324 102q117 92 71 295q12 324 -196 432q-57 -139 -195 -831h-26t22 2z " />
<glyph unicode="&#xd9;" d="M47 612q-4 135 37 314q37 270 104 331q49 98 95 91q57 0 57 -72q0 -16 -4 -27q0 -4 -78 -315q-39 -111 -51 -252q-18 -203 201 -358q135 -109 346 -99q233 4 309 127q31 135 51 330q-31 106 -70 307q-37 190 -30 293q14 37 53 82q37 43 78 53q59 -6 108 -289 q25 -219 11 -354q43 -356 -93 -522q-111 -264 -503 -227q-276 -63 -435 118q-176 199 -186 469zM408 1888q-6 51 38 97q47 47 80 45q33 -4 66 -52q27 -66 100 -172q25 -63 78 -139q20 -51 18 -63q-6 -41 -34 -93q-31 -55 -72 -38q-25 -4 -51 22q-45 25 -133 203t-90 190z " />
<glyph unicode="&#xda;" horiz-adv-x="1353" d="M39 573q23 162 80 392q40 203 92 313q37 63 82 76q61 -12 72 -64q-6 -27 -13 -41q0 -16 -45 -293q-86 -160 -67 -262q-8 -272 166 -346q129 -139 356 -104q240 -31 305 133q37 160 66 346l-52 240q-37 168 -30 303q-12 52 24 98q37 45 82 49q82 0 115 -285 q31 -160 14 -337q4 -307 -90 -564q-195 -262 -453 -256q-307 31 -460 176q-254 195 -244 426zM610 1520q-8 41 35 98q61 102 162 297q66 47 108 53q35 4 51.5 -16.5t14.5 -65.5q-6 -33 -102 -217l-131 -172q-35 -37 -80 -47q-66 7 -58 70z" />
<glyph unicode="&#xdb;" horiz-adv-x="1347" d="M51 578q22 178 80 374q18 211 76 305q47 86 86 91q35 4 50 -14.5t13 -57.5q0 -2 -4 -27q0 -2 -4 -30.5l-14 -100l-21 -149.5q-70 -166 -92 -281q33 -221 205 -389q123 -106 391 -111q143 16 232 189q37 104 84 340q-29 86 -56 303q-29 219 -43 256q6 43 45 82 q41 41 88 53q59 10 127 -270q-6 -209 -12 -338q-10 -408 -98 -567q-127 -211 -457 -234q-291 10 -483 129q-201 234 -193 447zM330 1538q-4 39 106 244q115 115 150 178q33 61 96 80q41 4 250 -205t133 -231q-6 -35 -33 -82q-29 -49 -65 -35q-53 0 -154 153q-88 55 -149 166 q-37 -92 -86 -151q-33 -82 -78 -129q-45 -49 -103 -58q-27 -4 -49 17q-24 20 -18 53z" />
<glyph unicode="&#xdc;" horiz-adv-x="1366" d="M86 641q-23 88 33 334q25 188 82 311q61 61 100 62q55 3 68 -62q-8 -31 -11 -37q0 -12 -106 -299q-27 -186 -31 -260q43 -229 185 -371q158 -80 366 -112q215 4 285 149q72 133 47 383q14 63 -31 248q-47 186 -29 291q0 43 35 86q37 45 92 45q55 -2 107 -270 q31 -178 18 -328q-4 -410 -84 -535q-131 -268 -491 -278q-287 -37 -442 152q-230 172 -193 491zM342 1565l33 139q23 115 108 115q68 -9 62 -99q6 -10 -6 -96q-33 -92 -31 -100q-27 -53 -82 -58q-84 7 -84 99zM874 1591q0 78 21 146q61 80 104 88q71 6 68 -80q0 -4 -2 -16.5 t-4 -29t-6 -32.5q-12 -57 -8 -76q0 -35 -31 -69q-31 -33 -78 -49q-33 2 -49 40q-21 35 -15 78z" />
<glyph unicode="&#xdd;" horiz-adv-x="1290" d="M70 1044q-43 346 135 340q23 -16 39 -38q20 -29 22 -54l-18 -96q-12 -59 -8 -92q25 -164 102 -268q80 -106 242 -76q129 -25 258 47q125 63 184 211q-33 152 -20 227q-10 57 20 103q35 51 86 51q109 -6 78 -244q23 -70 35 -201q14 -154 0 -262q0 -270 -101 -508 q-184 -219 -424 -213q-115 29 -231 49q-203 49 -238 66q-37 31 -32 72q-2 41 32 92q33 49 74 39q6 6 19 2q295 -47 413 -78q104 -2 172 31q70 35 111 166q10 147 27 335q-215 -264 -496 -198q-262 -37 -397 141q-78 120 -84 356zM543 1520q-12 43 35 98q61 102 161 297 q66 47 109 53q33 2 49 -17.5t14 -64.5q-6 -39 -100 -217l-131 -172q-35 -37 -82 -47q-63 7 -55 70z" />
<glyph unicode="&#xde;" horiz-adv-x="1261" d="M227 934q10 63 52 110q6 80 4 224q43 88 139 98q20 4 32.5 -10.5t16.5 -46.5q6 -47 6 -113q0 -33 -2 -63q2 -33 -2 -62q766 -49 778 -373q-39 -266 -852 -510q16 -27 7 -82q-25 -88 -121 -108q-55 8 -45 80q-7 -15 4 59q9 57 28 158q-39 8 -43 29q2 2 13 51q12 27 2 141 q-10 123 16 387q-27 -14 -33 31zM428 838q45 -156 16 -394q160 72 330 107q254 119 293 125q12 129 -639 162z" />
<glyph unicode="&#xdf;" horiz-adv-x="1441" d="M195 653q51 272 100 420q104 262 303 273q82 18 178 10q207 6 301 -39q170 -104 146 -277q6 -158 -176 -286q139 -49 243 -133q80 -98 96 -228q-20 -158 -190 -317q-150 -49 -356 -47q-168 -2 -265 -6q-47 31 -40 69q-6 57 34 96q45 41 82 41q27 -2 113 -22q80 -18 100 0 q84 6 187 33q141 61 147 106q-16 74 -117 137q-139 88 -346 76q-125 18 -121 80q6 84 88 145q18 14 129 52q100 35 146 53q68 63 70 106q8 102 -127 138q-111 23 -236 4q-117 12 -199 -45q-86 -84 -98 -504q2 -35 21 -445q14 -336 45 -473q20 -92 1.5 -138t-73.5 -44 q-76 2 -64 86q14 123 -38 363q-9 323 -62 423q-4 39 -11 139.5t-11 153.5z" />
<glyph unicode="&#xe0;" horiz-adv-x="1058" d="M31 53q0 41 213 457q31 268 176 569q6 37 37 133q29 80 63 144q37 68 103 53q45 0 63 -61q55 -86 94 -252q25 -215 31 -215q51 -248 195 -729q23 -12 22 -23q2 -47 -33 -92q-37 -45 -77 -49q-66 6 -123 151q-29 16 -90 23q-33 -2 -87 0q-59 4 -86 -2l-311 43 q-27 -127 -53.5 -179.5t-58.5 -35.5q-68 -11 -78 65zM299 293l512 39q-147 260 -236 749q-32 -108 -276 -788zM334 1909q-6 51 39 96t80 45q29 -2 61 -51q23 -53 104 -170q27 -70 78 -141q18 -47 17 -64q-6 -45 -35 -92q-31 -53 -70 -39q-27 -4 -53 23q-43 23 -131 202 t-90 191z" />
<glyph unicode="&#xe1;" horiz-adv-x="1073" d="M14 43q6 66 226 489q37 250 145 478q33 98 47 192q47 96 86 144q37 46 86 67q45 -6 66 -61q55 -96 86 -236q18 -201 41 -233q114 -273 221 -793l-4 39q0 -43 -33 -96q-35 -55 -88 -47q-47 0 -96 180q-43 -10 -117 -4q-33 -8 -80 -8q-59 0 -84 8l-287 -2 q-63 -174 -145 -189q-72 19 -70 72zM293 291l397 -8q-63 332 -194 766q39 -76 -203 -758zM541 1556q-8 43 34 99q61 102 162 297q70 49 109 55q35 4 50 -17.5t13 -66.5q-8 -39 -100 -217l-131 -170q-37 -40 -80 -49q-65 6 -57 69z" />
<glyph unicode="&#xe2;" horiz-adv-x="1095" d="M41 59q-6 33 176 521l154 505q74 45 94 119q25 92 76 152q53 61 88 47q39 0 73 -66l58 -221q20 -190 57 -233l225 -654q-8 -80 -8 -100q0 -45 -37 -98q-33 -49 -77 -39q-57 0 -103 178q-39 -16 -115 -2q-27 -12 -75 -4q-53 10 -88 -2l-299 -2q-59 -209 -127 -185 q-80 4 -72 84zM238 1538q-4 39 106 244q115 115 150 178q33 61 96 80q41 4 250 -205t133 -231q-6 -35 -33 -82q-29 -49 -66 -35q-51 0 -151 153q-94 55 -152 166q-37 -92 -86 -151q-33 -82 -77 -129q-45 -49 -103 -58q-27 -4 -49 17q-24 20 -18 53zM369 324l393 -25 q-104 274 -131 711q-84 -35 -262 -686z" />
<glyph unicode="&#xe3;" horiz-adv-x="1153" d="M57 51q-2 49 230 471l119 541q66 74 90 131q25 88 73 143q53 59 76 70q45 2 68 -59q57 -86 80 -238q47 -164 47 -227q84 -246 207 -785l14 31q0 -39 -37 -90q-33 -43 -80 -53q-59 12 -110 155q-34 22 -93 19q-39 0 -94 -6q-59 -6 -82 8l-313 -8q-31 -156 -123 -185 q-66 19 -72 82zM178 1550q-12 90 121 174q86 47 195 60q72 -14 168 -80t182 -35q39 2 100 55q41 35 74 60q33 -6 53.5 -33t20.5 -55q-2 -14 -19 -54q-33 -61 -115 -104q-74 -41 -157 -59q-72 -16 -180 47q-104 59 -166 39q-68 6 -119 -33q-49 -39 -94 -45q-37 -2 -53.5 14 t-10.5 49zM285 334l485 45q-55 240 -195 631q1 -33 -290 -676z" />
<glyph unicode="&#xe4;" horiz-adv-x="1112" d="M43 55q8 43 236 410q37 287 170 553q-14 100 20 186q29 96 82 152q55 59 84 53q45 6 67 -66q45 -88 72 -243q74 -195 53 -215q109 -248 193 -740q27 -6 27 -16q0 -47 -31 -88q-31 -39 -80 -51q-61 0 -113 149q-37 18 -108 19q-18 4 -80 -2q-57 -6 -84 8l-315 -8 q-66 -156 -109 -176q-74 -1 -84 75zM270 1565q14 76 29 139q23 115 111 115q68 -9 61 -99q8 -12 -6 -96q-35 -94 -33 -100q-27 -53 -80 -58q-82 7 -82 99zM322 324l423 2q-90 266 -124 667q-66 -28 -299 -669zM801 1591q0 78 20 146q57 78 107 88q68 6 65 -80 q0 -20 -12 -77.5t-8 -76.5q0 -35 -31 -69q-31 -33 -78 -49q-33 2 -49 40q-20 35 -14 78z" />
<glyph unicode="&#xe5;" horiz-adv-x="1163" d="M33 61q2 29 217 517q86 207 149 471l70 151q23 94 70 156q49 66 84 47q49 8 69 -60l90 -229q43 -203 31 -231q115 -233 291 -797q-70 51 -70 43q-2 -45 -39 -86q-31 -37 -75 -57q-33 -2 -55.5 39t-39.5 122q-51 12 -110 9q-33 4 -99 -2q-57 -6 -77 6l-277 20 q-80 -199 -156 -198q-70 -10 -73 79zM299 1812q14 193 119 246q0 90 143 154q104 61 178 49q147 -18 228 -107q78 -86 96 -215q-20 -135 -154 -301q-132 -166 -295 -104q-127 -6 -208 94q-84 102 -107 184zM322 406l403 -103q-35 287 -199 684q27 -18 -204 -581zM485 1870 q-6 -68 54 -111q59 -45 120 -47q86 2 152 60q61 53 82 129q-14 68 -72 114q-63 41 -112 39q-55 -4 -111 -20l-92 -62q-27 -67 -21 -102z" />
<glyph unicode="&#xe6;" horiz-adv-x="1789" d="M49 41q-2 20 107 233q80 287 329 748q-41 170 -16 176q27 55 80 148q41 68 82 59q49 0 74 -74q33 -74 63 -248q70 -174 55 -223q33 188 37 254q-31 25 -37 72q6 43 31 78q25 33 64 57q29 20 63 22q20 -2 31 -10q59 12 506 62q115 -29 115 -21q0 2 -3 4q72 -6 60 -65 q4 -78 -86 -101q-8 -12 -177 -30q-150 14 -413 -43q16 -59 -45 -389q203 63 417 102q98 -33 89 -111q0 -90 -95 -110q-16 -6 -120 -25q-211 -23 -316 -16q-3 -37 0 -80q-4 -180 56.5 -264t185.5 -76l207 88q160 68 258 31q72 10 82 -66q-12 -82 -101 -137q-12 3 -98 0 q-109 -20 -186 -59q-184 -41 -220 -54q-123 0 -194.5 65.5t-122.5 168.5l-592 -6q16 -137 -6 -144q-39 -78 -104 -88q-66 11 -60 72zM352 309l406 37q-102 246 -140 598q-82 -33 -266 -635z" />
<glyph unicode="&#xe8;" horiz-adv-x="1099" d="M59 387q0 199 47 377q78 303 70 379q-49 12 -49 51q8 102 84 129q41 39 76 33q20 4 30 -10q258 80 664 40q12 2 15 -12t-1 -43q12 -74 -67 -123q-55 -4 -183 -26q-106 8 -421 -23q0 -59 -13 -348q120 12 381 55q82 -41 88 -112q-4 -94 -80 -115q-10 0 -28.5 -2t-48 -3 t-54.5 -3q-43 -2 -331 -33q6 -41 4 -72q-23 -332 235 -338q55 6 219 66q156 57 242 63q51 -8 72.5 -28.5t11.5 -52.5q18 -115 -127 -146q-109 -29 -250 -37q-51 -35 -104.5 -47t-116.5 -16q-347 8 -365 397zM326 1884q-6 53 39 98q46 46 79 43q31 -2 66 -51q27 -68 100 -170 q27 -70 78 -141q18 -45 19 -61q-6 -43 -35 -95q-31 -55 -72 -39q-23 -2 -49 25q-51 27 -135 201q-88 182 -90 190z" />
<glyph unicode="&#xe9;" horiz-adv-x="1032" d="M59 473q-27 94 23 328q37 203 37 358q-14 -4 -19.5 6.5t-3.5 36.5q10 98 82 123q35 29 76 35q12 0 29 -12q297 6 630 77q47 -37 43 -90q14 -84 -69 -114q-43 -12 -176 -11q-98 -29 -408 -90q-4 -51 -94 -338q184 47 412 66q68 -8 97.5 -30.5t24.5 -63.5q4 -74 -98 -115 q-8 -2 -123 -23q-123 -20 -282 -18q-31 -33 -29 -72q-8 -166 43 -244.5t164 -72.5q86 -6 229 43q141 47 258 51q82 -4 84 -61q4 -100 -127 -166q-154 -23 -231 -39q-63 -8 -119 -29q-47 -10 -80 -15l-47 -7q-176 -10 -257 111.5t-69 375.5zM465 1520q-10 45 33 98 q61 102 161 297q66 47 109 53q35 4 51.5 -16.5t14.5 -65.5q-6 -33 -103 -217l-131 -172q-35 -37 -80 -47q-63 7 -55 70z" />
<glyph unicode="&#xea;" horiz-adv-x="1052" d="M92 762q74 262 45 379q-27 18 -28 53q2 117 81 129q37 43 80 37q14 0 27 -14q324 66 668 0q13 32 19 -13q1 -5 1 -10q-16 -78 -92 -102q-35 -10 -164 -17q-108 -12 -405 0q-16 -111 -66 -411q121 16 447 30q53 18 63 -69q-10 -86 -100 -111q-20 -8 -136 -18 q-127 -10 -284 -33q-25 -33 -23 -66q9 -283 240 -344q25 4 235 51q174 39 209 74q102 10 97 -59q0 -131 -134 -168q-109 -6 -233 -35q-43 -14 -117 -43q-86 -8 -119 -16q-315 43 -294 463q-62 120 -17 313zM201 1538q-4 39 106 244q115 115 150 178q35 61 94 80 q41 4 250 -205q210 -210 135 -231q-6 -35 -33 -82q-29 -49 -67 -35q-47 0 -152 153q-88 55 -149 166q-31 -80 -89 -151q-33 -82 -77 -129q-45 -49 -101 -58q-27 -4 -49 17q-24 20 -18 53z" />
<glyph unicode="&#xeb;" horiz-adv-x="1071" d="M80 496q-28 71 0 325q106 211 86 322q-45 12 -39 57q10 90 84 115q37 40 68 43q20 2 32 -12q322 55 625 32q29 8 42 -4t11 -47q2 -78 -82 -117q-25 -3 -190 13q-70 -27 -402 -68q10 -59 -61 -348q160 18 453 6q59 10 67 -59q2 -74 -82 -121q-43 0 -123 -17 q-90 -18 -348 -12q16 -35 21 -78q-46 -298 215 -325q76 2 248 30q174 29 219 68q53 2 77.5 -9t20.5 -36q3 -138 -123 -148q-131 -41 -250 -63q-45 -20 -108 -35q-74 -20 -119 -14q-360 -49 -342 502zM227 1565q6 39 31 139q23 115 109 115q68 -9 61 -99q6 -10 -6 -96 q-33 -92 -31 -100q-27 -53 -82 -58q-82 7 -82 99zM758 1591q0 78 20 146q59 80 107 88q68 6 65 -80q0 -4 -2 -16.5t-4 -29t-6 -32.5q-12 -57 -8 -76q0 -35 -31 -69.5t-76 -48.5q-35 4 -51 40q-20 35 -14 78z" />
<glyph unicode="&#xec;" horiz-adv-x="462" d="M41 1888q-6 51 39 97q47 47 80 45q31 -2 63 -52q23 -57 103 -172q25 -63 77 -139q18 -45 19 -63q-6 -41 -35 -93q-31 -55 -72 -38q-25 -4 -51 22q-45 25 -133 203t-90 190zM147 90q-4 166 13 383q6 236 6 391l-2 195q18 178 59 261t105 69q43 -2 24 -152q31 -164 23 -481 q-10 -354 -10 -486q-55 -256 -164 -293q-60 13 -54 113z" />
<glyph unicode="&#xed;" horiz-adv-x="475" d="M43 90q4 131 27 361q29 326 16 399l4 248q-12 252 127 307q68 -25 55 -154q10 -166 17 -514q6 -371 -56 -481q20 -145 -5 -208.5t-101 -49.5q-33 -2 -54.5 20.5t-29.5 71.5zM90 1520q-10 45 35 98q61 102 162 297q68 47 106 53q35 4 51.5 -16.5t14.5 -65.5 q-6 -39 -101 -217l-131 -172q-35 -37 -80 -47q-65 7 -57 70z" />
<glyph unicode="&#xee;" horiz-adv-x="849" d="M29 1538q-2 37 108 244q115 115 150 178q35 61 94 80q41 4 250 -205q210 -210 135 -231q-6 -29 -35 -82q-29 -49 -65 -35q-51 0 -152 153q-90 55 -149 166q-35 -88 -89 -151q-33 -82 -77 -129q-45 -49 -103 -58q-25 -4 -47 17q-26 22 -20 53zM270 96q4 113 43 398 q25 260 -10 356l4 207q27 315 129 325q37 4 50.5 -25.5t5.5 -92.5q6 -195 -0.5 -533t-6.5 -442q-4 -295 -137 -289q-72 -13 -78 96z" />
<glyph unicode="&#xef;" horiz-adv-x="792" d="M37 1565q6 39 31 139q23 115 108 115q68 -9 62 -99q6 -10 -9 -96q-33 -88 -28 -100q-27 -53 -82 -58q-82 7 -82 99zM262 84q14 154 19 352q25 342 10 412l-21 272q66 262 176 266q25 2 36.5 -26.5t9.5 -85.5q4 -205 24 -483q20 -276 -29 -510q-25 -289 -151 -304 q-62 19 -74 107zM567 1591q0 78 21 146q57 80 104 88q71 6 68 -80q0 -20 -12.5 -77.5t-8.5 -76.5q0 -35 -30 -69q-31 -33 -78 -49q-33 2 -49 40q-21 35 -15 78z" />
<glyph unicode="&#xf1;" horiz-adv-x="1161" d="M78 45q-14 147 59 399q-4 315 -2 398l-18 182q18 332 141 328q29 12 55 -23q53 -74 88 -158q70 -123 88 -151q104 -193 437 -645q-59 219 -29 663q-2 76 -2 117q4 68 23 115q18 111 106 116q63 -8 63 -81q-2 -102 -2 -445q0 -283 -22 -475q-6 -102 -23 -229 q-8 -39 -36 -88q-45 -57 -91 -64q-20 8 -49 35l-188 246q-117 260 -412 637q-6 -211 49 -623q-49 -53 -59 -113q2 -68 -16 -125q-41 -104 -105 -98q-55 6 -55 82zM170 1550q-12 90 123 174q84 47 192 60q72 -14 168.5 -80t182.5 -35q39 2 100 55q41 35 74 60q31 -6 51 -33 t20 -55q-4 -23 -16 -54q-37 -63 -115 -104q-72 -39 -157 -59q-72 -16 -181 47q-106 61 -168 39q-63 6 -116.5 -33t-94.5 -45q-37 -2 -53 14t-10 49z" />
<glyph unicode="&#xf2;" horiz-adv-x="1161" d="M78 45q-14 147 59 399q-4 315 -2 398l-18 182q18 332 141 328q29 12 55 -23q53 -74 88 -158q70 -123 88 -151q104 -193 437 -645q-59 219 -29 663q-2 76 -2 117q4 68 23 115q18 111 106 116q63 -8 63 -81q-2 -102 -2 -445q0 -283 -22 -475q-6 -102 -23 -229 q-8 -39 -36 -88q-45 -57 -91 -64q-20 8 -49 35l-188 246q-117 260 -412 637q-6 -211 49 -623q-49 -53 -59 -113q2 -68 -16 -125q-41 -104 -105 -98q-55 6 -55 82zM170 1550q-12 90 123 174q84 47 192 60q72 -14 168.5 -80t182.5 -35q39 2 100 55q41 35 74 60q31 -6 51 -33 t20 -55q-4 -23 -16 -54q-37 -63 -115 -104q-72 -39 -157 -59q-72 -16 -181 47q-106 61 -168 39q-63 6 -116.5 -33t-94.5 -45q-37 -2 -53 14t-10 49z" />
<glyph unicode="&#xf3;" d="M41 592q0 203 80 346q80 233 248 279q70 162 354 151q233 -6 410 -250q184 -166 118 -471q59 -279 -116 -444q-139 -219 -494 -189q-260 -57 -416 125q-174 197 -184 453zM233 666q-37 -199 148 -328q147 -162 332 -162q203 6 278 125q77 120 99 320q27 264 -123 368 q-150 102 -377 180l-164 -69q-181 -153 -193 -434zM391 1888q-6 51 39 97q47 47 80 45q33 -4 63 -52q23 -57 103 -172q25 -63 78 -139q18 -47 16 -63q-6 -45 -33 -93q-31 -55 -71 -38q-25 -4 -52 22q-45 25 -133 203t-90 190z" />
<glyph unicode="&#xf4;" horiz-adv-x="1382" d="M39 553q23 231 117 420q84 172 243 274q47 102 293 154q283 -72 488 -215q160 -217 104 -510q18 -248 -123 -500q-225 -219 -446 -209q-285 27 -439 178q-249 195 -237 408zM213 657q-4 -176 190 -333q131 -123 312 -113q221 4 336 94q117 92 69 318q2 205 -119 354 q-121 147 -417 160q-25 10 -125 -66q-215 -95 -246 -414zM621 1520q-12 43 32 98q61 102 162 297q66 47 109 53q33 2 49 -17.5t14 -64.5q-6 -39 -100 -217l-131 -172q-35 -37 -80 -47q-63 7 -55 70z" />
<glyph unicode="&#xf5;" horiz-adv-x="1361" d="M47 555q29 252 121 408q61 178 225 251q66 145 295 146q310 34 461 -240q168 -131 129 -420q12 -342 -129 -514q-160 -172 -449 -190q-279 10 -462 131q-199 233 -191 428zM233 629q23 -201 123 -316q154 -115 346 -98q231 -6 328 104q96 113 78 302q-14 266 -119 395 q-100 123 -373 127q-63 2 -147 -51q-203 -184 -236 -463zM336 1538q-2 37 108 244q115 115 150 178q35 61 94 80q41 4 250 -205t133 -231q-8 -41 -31 -82q-29 -49 -67 -35q-51 0 -152 153q-90 55 -149 166q-35 -88 -88 -151q-33 -82 -78 -129q-45 -49 -103 -58 q-25 -4 -47 17q-26 22 -20 53z" />
<glyph unicode="&#xf6;" horiz-adv-x="1386" d="M45 590q2 168 113 362q55 184 243 310q41 88 312 133q238 -33 399 -205q225 -231 207 -490q-8 -299 -172 -487q-184 -250 -475 -176q-266 -74 -412 145q-178 146 -215 408zM213 662q-12 -190 182 -328q121 -139 332 -105q162 -33 277 84q113 115 124 312 q-31 246 -143 395q-111 147 -358 90q-76 27 -160 -39q-268 -143 -254 -409zM272 1550q-12 90 121 174q86 47 195 60q72 -14 168 -80t182 -35q39 2 100 55q55 47 72 60q33 -6 53.5 -33t20.5 -55q0 -14 -17 -54q-33 -61 -114 -104q-74 -41 -158 -59q-72 -16 -180 47 q-104 59 -166 39q-68 6 -121 -33q-55 -39 -92 -45q-37 -2 -53.5 14t-10.5 49z" />
<glyph unicode="&#xf7;" horiz-adv-x="815" d="M47 690q18 139 213 162l389 -70q119 45 115 -10q14 -119 -102 -141q-8 0 -26 -1t-50.5 -2t-61.5 -1q-61 8 -186 -18.5t-219 -6.5q-70 4 -72 88zM279 307q-4 59 32 111q49 76 92 78q39 4 60.5 -16.5t21.5 -65.5q-6 -66 -41 -123q-41 -74 -102 -60q-29 -10 -43 21 q-18 37 -20 55zM342 1022q6 66 51 111q28 65 92 67q35 2 51.5 -20.5t14.5 -69.5q-6 -41 -41 -106q-39 -43 -94 -46q-66 5 -74 64z" />
<glyph unicode="&#xf8;" horiz-adv-x="1357" d="M39 567q37 203 117 394q117 176 221 292q70 94 340 95q72 20 135 2q27 96 39 120q35 88 96 70q76 14 80 -70q-14 -55 -49 -213q162 -74 211 -241q98 -133 86 -350q-33 -227 -170 -486q-166 -144 -443 -141q-63 -33 -143 -37q-6 -18 -20 -78q-29 -68 -45 -149 q-43 -86 -132 -97q-61 -8 -71 66q10 55 78 307q-143 104 -213 213q-74 115 -117 303zM242 655q0 -221 207 -397q132 283 344 780q-82 94 -197 101q-37 6 -145 -47q-181 -136 -209 -437zM731 203q205 8 324 102q117 92 71 295q12 324 -196 432q-57 -139 -195 -831h-26t22 2z " />
<glyph unicode="&#xf9;" d="M47 612q-4 135 37 314q37 270 104 331q49 98 95 91q57 0 57 -72q0 -16 -4 -27q0 -4 -78 -315q-39 -111 -51 -252q-18 -203 201 -358q135 -109 346 -99q233 4 309 127q31 135 51 330q-31 106 -70 307q-37 190 -30 293q14 37 53 82q37 43 78 53q59 -6 108 -289 q25 -219 11 -354q43 -356 -93 -522q-111 -264 -503 -227q-276 -63 -435 118q-176 199 -186 469zM408 1888q-6 51 38 97q47 47 80 45q33 -4 66 -52q27 -66 100 -172q25 -63 78 -139q20 -51 18 -63q-6 -41 -34 -93q-31 -55 -72 -38q-25 -4 -51 22q-45 25 -133 203t-90 190z " />
<glyph unicode="&#xfa;" horiz-adv-x="1353" d="M39 573q23 162 80 392q40 203 92 313q37 63 82 76q61 -12 72 -64q-6 -27 -13 -41q0 -16 -45 -293q-86 -160 -67 -262q-8 -272 166 -346q129 -139 356 -104q240 -31 305 133q37 160 66 346l-52 240q-37 168 -30 303q-12 52 24 98q37 45 82 49q82 0 115 -285 q31 -160 14 -337q4 -307 -90 -564q-195 -262 -453 -256q-307 31 -460 176q-254 195 -244 426zM610 1520q-8 41 35 98q61 102 162 297q66 47 108 53q35 4 51.5 -16.5t14.5 -65.5q-6 -33 -102 -217l-131 -172q-35 -37 -80 -47q-66 7 -58 70z" />
<glyph unicode="&#xfb;" horiz-adv-x="1347" d="M51 578q22 178 80 374q18 211 76 305q47 86 86 91q35 4 50 -14.5t13 -57.5q0 -2 -4 -27q0 -2 -4 -30.5l-14 -100l-21 -149.5q-70 -166 -92 -281q33 -221 205 -389q123 -106 391 -111q143 16 232 189q37 104 84 340q-29 86 -56 303q-29 219 -43 256q6 43 45 82 q41 41 88 53q59 10 127 -270q-6 -209 -12 -338q-10 -408 -98 -567q-127 -211 -457 -234q-291 10 -483 129q-201 234 -193 447zM330 1538q-4 39 106 244q115 115 150 178q33 61 96 80q41 4 250 -205t133 -231q-6 -35 -33 -82q-29 -49 -65 -35q-53 0 -154 153q-88 55 -149 166 q-37 -92 -86 -151q-33 -82 -78 -129q-45 -49 -103 -58q-27 -4 -49 17q-24 20 -18 53z" />
<glyph unicode="&#xfc;" horiz-adv-x="1366" d="M86 641q-23 88 33 334q25 188 82 311q61 61 100 62q55 3 68 -62q-8 -31 -11 -37q0 -12 -106 -299q-27 -186 -31 -260q43 -229 185 -371q158 -80 366 -112q215 4 285 149q72 133 47 383q14 63 -31 248q-47 186 -29 291q0 43 35 86q37 45 92 45q55 -2 107 -270 q31 -178 18 -328q-4 -410 -84 -535q-131 -268 -491 -278q-287 -37 -442 152q-230 172 -193 491zM342 1565l33 139q23 115 108 115q68 -9 62 -99q6 -10 -6 -96q-33 -92 -31 -100q-27 -53 -82 -58q-84 7 -84 99zM874 1591q0 78 21 146q61 80 104 88q71 6 68 -80q0 -4 -2 -16.5 t-4 -29t-6 -32.5q-12 -57 -8 -76q0 -35 -31 -69q-31 -33 -78 -49q-33 2 -49 40q-21 35 -15 78z" />
<glyph unicode="&#xfd;" horiz-adv-x="1290" d="M70 1044q-43 346 135 340q23 -16 39 -38q20 -29 22 -54l-18 -96q-12 -59 -8 -92q25 -164 102 -268q80 -106 242 -76q129 -25 258 47q125 63 184 211q-33 152 -20 227q-10 57 20 103q35 51 86 51q109 -6 78 -244q23 -70 35 -201q14 -154 0 -262q0 -270 -101 -508 q-184 -219 -424 -213q-115 29 -231 49q-203 49 -238 66q-37 31 -32 72q-2 41 32 92q33 49 74 39q6 6 19 2q295 -47 413 -78q104 -2 172 31q70 35 111 166q10 147 27 335q-215 -264 -496 -198q-262 -37 -397 141q-78 120 -84 356zM543 1520q-12 43 35 98q61 102 161 297 q66 47 109 53q33 2 49 -17.5t14 -64.5q-6 -39 -100 -217l-131 -172q-35 -37 -82 -47q-63 7 -55 70z" />
<glyph unicode="&#xfe;" horiz-adv-x="1261" d="M227 934q10 63 52 110q6 80 4 224q43 88 139 98q20 4 32.5 -10.5t16.5 -46.5q6 -47 6 -113q0 -33 -2 -63q2 -33 -2 -62q766 -49 778 -373q-39 -266 -852 -510q16 -27 7 -82q-25 -88 -121 -108q-55 8 -45 80q-7 -15 4 59q9 57 28 158q-39 8 -43 29q2 2 13 51q12 27 2 141 q-10 123 16 387q-27 -14 -33 31zM428 838q45 -156 16 -394q160 72 330 107q254 119 293 125q12 129 -639 162z" />
<glyph unicode="&#xff;" horiz-adv-x="1314" d="M47 1018q49 352 141 377q33 -16 54 -43q18 -27 22 -58q-4 -47 -16 -96q-14 -63 -2 -98q-18 -170 82 -266q98 -94 258 -76q154 -35 256 37q150 80 153 227q0 144 13 221q-16 66 20 105q33 49 94 43q82 -2 101 -236q6 -106 18 -215q18 -152 -12 -235q-6 -362 -92 -476 q-127 -225 -461 -231q-84 -8 -209 25q-182 31 -225 79q-43 16 -43 58q-2 43 24 94q29 53 88 41l13 -4q301 -59 417 -96q106 0 181 43q76 45 75 168q29 88 4 333q-139 -213 -458 -231q-231 41 -383 151q-107 144 -113 359zM285 1565q6 39 30 139q23 115 111 115q66 -8 59 -99 q6 -10 -6 -96q-33 -92 -30 -100q-27 -53 -82 -58q-82 7 -82 99zM815 1591q0 78 21 146q59 80 106 88q71 6 68 -80q-8 -47 -15 -78q-12 -57 -8 -76q0 -39 -29 -69q-31 -33 -77 -49q-33 2 -50 40q-22 37 -16 78z" />
<glyph unicode="&#x152;" horiz-adv-x="2414" d="M217 586q-41 197 84 372q82 195 262 285q-18 57 35 80q82 45 260 63q326 -12 498 -292l-8 28q-41 23 -37 60q6 61 65 114q58 52 92 50q18 0 33 -13l24.5 4l41 6.5l70.5 11.5l134.5 21.5l210.5 32.5q117 -49 129 -31q57 -2 56 -55q18 -88 -72 -117q-27 -6 -170 -10 q-145 -39 -403 -86q0 -77 -86 -338q195 51 409 66q61 -8 90 -31t25 -62q2 -76 -100 -112l-13 -2q-12 -2 -50 -9.5t-77 -13.5q-82 0 -290 13q4 -74 -3 -103q-6 -305 203 -311q96 -6 258 35q182 47 215 57q106 6 107 -66q-10 -76 -101 -137q-49 -4 -133 -12q-98 -14 -139 -41 q-55 -12 -104 -37q-59 -14 -121 -14q-113 6 -215.5 63.5t-106.5 155.5q-197 -215 -448 -174q-305 -27 -480 168q-172 195 -145 381zM377 678q-8 -193 170 -356q102 -115 332 -109q197 31 290 137q84 94 95 314q20 190 -138 317q-156 125 -352 149q-78 25 -174 -22 q-76 -63 -174 -180q-84 -98 -49 -250z" />
<glyph unicode="&#x153;" horiz-adv-x="2414" d="M217 586q-41 197 84 372q82 195 262 285q-18 57 35 80q82 45 260 63q326 -12 498 -292l-8 28q-41 23 -37 60q6 61 65 114q58 52 92 50q18 0 33 -13l24.5 4l41 6.5l70.5 11.5l134.5 21.5l210.5 32.5q117 -49 129 -31q57 -2 56 -55q18 -88 -72 -117q-27 -6 -170 -10 q-145 -39 -403 -86q0 -77 -86 -338q195 51 409 66q61 -8 90 -31t25 -62q2 -76 -100 -112l-13 -2q-12 -2 -50 -9.5t-77 -13.5q-82 0 -290 13q4 -74 -3 -103q-6 -305 203 -311q96 -6 258 35q182 47 215 57q106 6 107 -66q-10 -76 -101 -137q-49 -4 -133 -12q-98 -14 -139 -41 q-55 -12 -104 -37q-59 -14 -121 -14q-113 6 -215.5 63.5t-106.5 155.5q-197 -215 -448 -174q-305 -27 -480 168q-172 195 -145 381zM377 678q-8 -193 170 -356q102 -115 332 -109q197 31 290 137q84 94 95 314q20 190 -138 317q-156 125 -352 149q-78 25 -174 -22 q-76 -63 -174 -180q-84 -98 -49 -250z" />
<glyph unicode="&#x160;" horiz-adv-x="1460" d="M123 907q31 240 233 400q225 59 428 51q399 18 396 -199q8 -63 -23 -149q-68 -88 -113 -82q-31 2 -49 28q-23 25 -18 60q-6 47 20 86q-68 41 -278 59q-252 -18 -391 -131q-14 -27 -19 -47q6 -141 283 -182q240 -96 422 -180q291 -43 248 -302q25 -139 -129 -247 q-162 -82 -353 -107q-98 25 -276 49q-160 51 -240 66q-55 51 -57 90q-2 59 41 94q41 33 88 33q25 0 164 -25q209 -82 362 -77q84 20 121 34q92 20 92 64q15 108 -239 166q-406 190 -465 147q-242 104 -248 301zM438 1843q0 43 31 90q28 43 80 49q22 -6 43 -36 q51 -45 110 -125q80 -98 93 -129q59 27 139 106q123 135 127 135q41 37 65 35q29 4 43.5 -18.5t16.5 -71.5q-4 -27 -25 -72q-49 -66 -170 -155q-141 -106 -209 -164q-20 -18 -32 -19q-23 -4 -56 21q-33 29 -110 156q-76 123 -135 147q-11 26 -11 51z" />
<glyph unicode="&#x161;" horiz-adv-x="1460" d="M123 907q31 240 233 400q225 59 428 51q399 18 396 -199q8 -63 -23 -149q-68 -88 -113 -82q-31 2 -49 28q-23 25 -18 60q-6 47 20 86q-68 41 -278 59q-252 -18 -391 -131q-14 -27 -19 -47q6 -141 283 -182q240 -96 422 -180q291 -43 248 -302q25 -139 -129 -247 q-162 -82 -353 -107q-98 25 -276 49q-160 51 -240 66q-55 51 -57 90q-2 59 41 94q41 33 88 33q25 0 164 -25q209 -82 362 -77q84 20 121 34q92 20 92 64q15 108 -239 166q-406 190 -465 147q-242 104 -248 301zM438 1843q0 43 31 90q28 43 80 49q22 -6 43 -36 q51 -45 110 -125q80 -98 93 -129q59 27 139 106q123 135 127 135q41 37 65 35q29 4 43.5 -18.5t16.5 -71.5q-4 -27 -25 -72q-49 -66 -170 -155q-141 -106 -209 -164q-20 -18 -32 -19q-23 -4 -56 21q-33 29 -110 156q-76 123 -135 147q-11 26 -11 51z" />
<glyph unicode="&#x178;" horiz-adv-x="1529" d="M147 1018q49 352 140 377q37 -18 55 -43q18 -27 23 -58q-4 -47 -17 -96q-16 -66 -4 -98q-18 -170 82 -266q98 -94 258 -76q154 -35 256 37q150 80 154 227q0 144 12 221q-16 63 22 105q33 49 95 43q80 -2 98 -236q6 -106 18 -215q18 -152 -12 -235q-6 -365 -90 -476 q-127 -225 -463 -231q-86 -9 -209 25q-180 31 -223 79q-45 16 -45 58q-2 43 25 94q29 53 90 41l12 -4q295 -59 416 -96q109 0 182.5 43t73.5 168q31 92 6 333q-139 -213 -461 -231q-231 41 -383 151q-105 140 -111 359zM385 1565q6 39 31 139q23 115 108 115q68 -9 62 -99 q6 -10 -6 -96q-33 -92 -31 -100q-27 -53 -82 -58q-82 7 -82 99zM915 1591q0 78 21 146q61 80 104 88q71 6 68 -80q0 -4 -2 -16.5t-4 -29t-6 -32.5q-12 -57 -9 -76q0 -35 -30.5 -69.5t-75.5 -48.5q-35 4 -51 40q-21 35 -15 78z" />
<glyph unicode="&#x17d;" horiz-adv-x="1529" d="M137 1245q-6 49 31 98q39 51 82 35q35 0 188 -26q141 8 375 37q374 -43 371 -50q98 4 98 -63q0 -41 -22 -105q-86 -127 -267 -348q-180 -174 -489 -673q71 40 424 55q215 63 399 76q68 -18 62 -93q8 -72 -80 -120q-63 -23 -285 -68q-557 -35 -795 -10q-70 12 -75 67 q0 51 26 105q35 82 146 164q53 63 118 153q246 240 666 586q-561 43 -754 80q-129 23 -170 39q-61 18 -49 61zM446 1843q2 47 31 90t78 49q25 -6 45 -36q57 -49 113 -125q80 -100 90 -129q66 29 139 106l125 135q41 39 68 35q29 4 43 -18.5t16 -71.5q-4 -33 -23 -72 q-47 -61 -172 -155q-141 -106 -208 -164q-20 -18 -33 -19q-18 -2 -56 21q-33 29 -110 156q-76 123 -135 147q-7 16 -11 51z" />
<glyph unicode="&#x17e;" horiz-adv-x="1529" d="M137 1245q-6 49 31 98q39 51 82 35q35 0 188 -26q141 8 375 37q374 -43 371 -50q98 4 98 -63q0 -41 -22 -105q-86 -127 -267 -348q-180 -174 -489 -673q71 40 424 55q215 63 399 76q68 -18 62 -93q8 -72 -80 -120q-63 -23 -285 -68q-557 -35 -795 -10q-70 12 -75 67 q0 51 26 105q35 82 146 164q53 63 118 153q246 240 666 586q-561 43 -754 80q-129 23 -170 39q-61 18 -49 61zM446 1843q2 47 31 90t78 49q25 -6 45 -36q57 -49 113 -125q80 -100 90 -129q66 29 139 106l125 135q41 39 68 35q29 4 43 -18.5t16 -71.5q-4 -33 -23 -72 q-47 -61 -172 -155q-141 -106 -208 -164q-20 -18 -33 -19q-18 -2 -56 21q-33 29 -110 156q-76 123 -135 147q-7 16 -11 51z" />
<glyph unicode="&#x2c6;" horiz-adv-x="1040" d="M141 1538q-2 37 109 244q115 115 149 178q35 61 95 80q41 4 250 -205t133 -231q-6 -35 -33 -82q-29 -49 -66 -35q-47 0 -151 153q-90 55 -152 166q-31 -84 -86 -151q-33 -82 -78 -129q-45 -49 -100 -58q-27 -4 -49 17q-27 22 -21 53z" />
<glyph unicode="&#x2c7;" horiz-adv-x="991" d="M141 1843q0 43 31 90q28 43 80 49q22 -6 43 -36q51 -45 111 -125q80 -98 92 -129q59 27 139 106q123 135 127 135q41 37 65 35q29 4 43.5 -18.5t16.5 -71.5q-4 -27 -25 -72q-49 -66 -170 -155q-141 -106 -209 -164q-23 -18 -32 -19q-23 -4 -56 21q-33 29 -110 156 q-76 123 -135 147q-11 26 -11 51z" />
<glyph unicode="&#x2c9;" horiz-adv-x="1083" d="M225 1542q-16 102 105 139q43 14 155 13l392 -49q55 43 61 -23q-14 -88 -102 -135q-10 4 -168 20q-388 18 -373 -41q-78 6 -70 76z" />
<glyph unicode="&#x2da;" horiz-adv-x="1128" d="M178 1769q14 193 119 246q0 90 143 154q100 59 178 49q147 -18 228 -107q78 -86 96 -213q-20 -137 -154 -303q-131 -164 -294 -102q-129 -6 -209 92q-84 102 -107 184zM360 1823q6 -68 56 -109q53 -43 129 -41q84 -12 145 60q63 74 76 139q-10 61 -66 108q-51 27 -131 23 q-31 6 -92 -21q-33 -23 -98 -47q-23 -71 -19 -112z" />
<glyph unicode="&#x2dc;" horiz-adv-x="1269" d="M182 1550q-12 90 121 174q84 47 195 60q76 -16 168 -80q94 -66 182 -35q39 2 100 55q41 35 74 60q31 -6 51.5 -33t20.5 -55q-4 -23 -17 -54q-37 -61 -116 -104q-74 -39 -156 -59q-72 -16 -180 47q-106 61 -168 39q-63 6 -116.5 -33t-94.5 -45q-37 -2 -53.5 14t-10.5 49z " />
<glyph unicode="&#x2000;" horiz-adv-x="1130" />
<glyph unicode="&#x2001;" horiz-adv-x="2260" />
<glyph unicode="&#x2002;" horiz-adv-x="1130" />
<glyph unicode="&#x2003;" horiz-adv-x="2260" />
<glyph unicode="&#x2004;" horiz-adv-x="753" />
<glyph unicode="&#x2005;" horiz-adv-x="563" />
<glyph unicode="&#x2006;" horiz-adv-x="376" />
<glyph unicode="&#x2007;" horiz-adv-x="376" />
<glyph unicode="&#x2008;" horiz-adv-x="280" />
<glyph unicode="&#x2009;" horiz-adv-x="450" />
<glyph unicode="&#x200a;" horiz-adv-x="124" />
<glyph unicode="&#x2010;" horiz-adv-x="1048" d="M225 682q-27 106 111 147q25 12 133 7l434 -107q11 57 17 57q4 0 8 -26q-23 -72 -103 -139q-8 14 -166 51q-367 49 -378 -68q-70 19 -56 78z" />
<glyph unicode="&#x2011;" horiz-adv-x="1048" d="M225 682q-27 106 111 147q25 12 133 7l434 -107q11 57 17 57q4 0 8 -26q-23 -72 -103 -139q-8 14 -166 51q-367 49 -378 -68q-70 19 -56 78z" />
<glyph unicode="&#x2012;" horiz-adv-x="1048" d="M225 682q-27 106 111 147q25 12 133 7l434 -107q11 57 17 57q4 0 8 -26q-23 -72 -103 -139q-8 14 -166 51q-367 49 -378 -68q-70 19 -56 78z" />
<glyph unicode="&#x2013;" horiz-adv-x="950" d="M197 690q15 95 104 123q82 29 184 23q33 6 97 -5q33 -2 84 3q45 2 67.5 -15.5t20.5 -52.5q-12 -84 -101 -135q-12 2 -40.5 3t-43.5 1q-61 -4 -90 -10q-22 0 -86 -13q-51 -2 -106 -2q-74 6 -90 80z" />
<glyph unicode="&#x2014;" horiz-adv-x="1261" d="M201 686q-12 98 86 133q29 14 141 15q133 -12 193 -3l393 29q63 -25 69 -94q-14 -86 -100 -135q-4 2 -170 18q-426 23 -551 -47q-69 14 -61 84z" />
<glyph unicode="&#x2018;" horiz-adv-x="456" d="M127 1274q4 27 33 65q25 33 53 27q29 0 45 -31q115 -344 94 -379q-2 -31 -33 -77q-29 -43 -63 -31q-23 -2 -41 37q-33 41 -55 194q-13 119 -33 195z" />
<glyph unicode="&#x2019;" horiz-adv-x="450" d="M106 909q-10 68 39 195q47 123 43 180q29 82 97 76q58 0 61 -80q0 -2 -6 -29q-22 -92 -80 -288q-31 -100 -106 -115q-54 8 -48 61z" />
<glyph unicode="&#x201a;" horiz-adv-x="448" d="M106 -219q-10 66 39 192q47 123 43 183q29 80 97 73q58 0 61 -79q0 -2 -6 -29q-22 -92 -80 -289q-31 -100 -106 -115q-54 9 -48 64z" />
<glyph unicode="&#x201c;" horiz-adv-x="1024" d="M217 1257q4 43 27 70q25 29 55 29q27 -2 45 -27l59 -395q35 -23 7 -68q-27 -43 -70 -37q-20 4 -41 39q-6 14 -15.5 42l-24.5 74t-30 85q-20 112 -12 188zM543 1255q6 49 39 91q33 43 67 32q41 -2 60 -43q10 -23 59 -180q45 -141 27 -217q-6 -29 -39 -78q-33 -47 -72 -33 q-37 -4 -53 64q-29 63 -56 231q-14 98 -32 133z" />
<glyph unicode="&#x201d;" horiz-adv-x="962" d="M186 905q4 74 41 201q31 106 47 174q41 90 101 80q29 8 43 -11.5t12 -62.5q6 -8 0 -35q-33 -109 -65 -342q-45 -55 -107 -59q-37 4 -55.5 17t-16.5 38zM522 938q-10 45 76 195l30.5 80.5t16.5 46t9 23.5t10 24q49 49 92 55q70 6 65 -78q-4 -25 -16 -59l-133 -244 q-37 -96 -99 -113q-61 7 -51 70z" />
<glyph unicode="&#x201e;" horiz-adv-x="960" d="M186 -219q4 72 41 199q31 106 47 174q41 88 101 77q29 8 43 -10t12 -61q6 -8 0 -35q-33 -109 -65 -342q-47 -57 -107 -59q-37 2 -55.5 17t-16.5 40zM522 -188q-10 43 76 192q59 160 66 174q51 51 92 58q35 4 51 -15.5t14 -60.5q-6 -33 -16 -64l-133 -241 q-37 -96 -99 -113q-61 7 -51 70z" />
<glyph unicode="&#x2020;" horiz-adv-x="915" d="M68 868q6 55 32 105q29 53 90 41q80 0 144 -4q-8 29 -10 110q-8 78 -11 117q4 41 49 96q46 55 87 43q37 0 51 -76q16 -41 -2 -333q106 2 186 -29q104 6 160 -31q53 -14 59 -67q-6 -40 -43 -92q-37 -51 -82 -37q-86 6 -252 47q-45 -436 -24 -766q0 -111 -37 -262 q0 -49 -23.5 -74t-68.5 -23q-76 -6 -64 64q-18 178 27 563q-37 319 -8 522q-57 -16 -217 -4q-39 27 -43 90z" />
<glyph unicode="&#x2021;" horiz-adv-x="958" d="M94 868q-2 51 29 105q31 51 94 49q39 -6 131 -29q4 39 -14 119q2 57 -2 121q8 49 47 94t86 53q40 -6 55 -73l55 -338q39 2 136 -21q86 -18 153 -37q59 -23 60 -71q-6 -40 -43 -92q-37 -53 -82 -37q-82 6 -252 47q-20 -147 -10 -240q88 -14 315 -39q37 -4 55.5 -17 t16.5 -38q-6 -47 -29 -96q-23 -47 -76 -45h-65q-113 12 -219 -4q-29 -150 -5 -281q-20 -252 -22 -270q-51 -98 -127 -113q-59 6 -53 96q-4 47 30 615q-133 -14 -145 4q-82 12 -76 88q0 41 33 90q31 46 80 43q8 4 92 -16q18 145 10 219q-72 27 -211 41q-61 28 -47 73z" />
<glyph unicode="&#x2022;" horiz-adv-x="1462" d="M197 532q-37 231 176 433q215 203 385 196q197 -18 389 -176q132 -126 147 -369q-27 -180 -213 -387q-178 -76 -419 -73q-193 -8 -361 57q-129 150 -104 319z" />
<glyph unicode="&#x2026;" horiz-adv-x="1280" d="M217 135q-2 51 31 88q37 41 82 58q72 -14 63 -88q0 -219 -104 -201q-72 12 -72 143zM551 78q2 45 29 106q55 72 106 78q78 -2 82 -86q-6 -57 -53 -121q-27 -74 -97 -67q-31 8 -49 28q-24 27 -18 62zM924 78q-10 43 32 106q43 66 101 54q31 2 46 -19.5t17 -66.5 q-6 -35 -45 -105q-37 -63 -90 -45q-65 0 -61 76z" />
<glyph unicode="&#x202f;" horiz-adv-x="450" />
<glyph unicode="&#x2030;" horiz-adv-x="2422" d="M213 899q12 158 119 322q100 147 241 151q123 -18 209 -98q88 -82 95 -250q6 -145 -74 -283q-129 -121 -254 -114q-135 14 -215 82q-127 92 -121 190zM377 14q4 14 26 56q90 221 388 612q252 295 288 520q80 137 72 164q53 88 102 92q37 -2 56 -26q16 -23 16 -56 q10 -92 -227 -604q-287 -342 -477 -709q-20 6 -84 -75q-33 -47 -80 -60q-35 10 -56 29q-24 22 -24 57zM383 991q12 -72 68 -104q47 -35 124 -35q47 -2 93 22q45 27 43 74q-8 84 -66 154q-59 53 -145 65q-101 -55 -117 -176zM807 299q4 80 31 162q31 86 98 131q29 37 61 39 q10 0 15 -2q29 96 192 96q100 14 195 -74q90 -111 82 -219q-14 -190 -123 -323q-104 -129 -279 -138q-109 18 -202 129q-54 72 -70 199zM987 356q2 -63 55 -116q49 -49 103 -52q59 0 106 50q45 49 56 135q-12 78 -58 125q-45 39 -133 26q-2 4 -24.5 0t-32.5 2 q-6 -23 -51 -77q-23 -42 -21 -93zM1540 293q16 121 100 287q4 10 5 28q-12 162 239 131q117 18 230 -67q115 -88 100 -269q-22 -129 -148 -282q-127 -154 -282 -96q-111 -10 -176 79q-78 56 -68 189zM1712 322q6 -39 43 -84q33 -39 82 -33q86 12 141 41q61 31 43 123 q10 70 -53 133t-125 49q-33 10 -53 4q4 -37 -29 -106q-35 -78 -49 -127z" />
<glyph unicode="&#x2039;" horiz-adv-x="823" d="M57 401q4 53 52 105q39 33 227 145q205 96 201 109q35 -6 55 -33t20 -55q-6 -59 -84 -131q-68 -23 -198 -88q129 -96 149 -152q113 -86 115 -149q-6 -43 -27 -84q-35 -49 -88 -54q-25 -4 -213 123q-187 126 -184 209q-27 30 -25 55z" />
<glyph unicode="&#x203a;" horiz-adv-x="897" d="M231 55q-12 61 45 115q52 65 142 129q168 74 180 119q-90 59 -182 96q-117 82 -148 107q-41 37 -35 77q-2 47 39 97q41 47 64 53q29 -4 94 -53q53 -23 90 -58l158 -106q90 -16 145 -90q47 -29 41 -74q-6 -33 -41 -94q-57 -51 -264 -180q-190 -150 -285 -213q-53 5 -43 75 z" />
<glyph unicode="&#x205f;" horiz-adv-x="563" />
<glyph unicode="&#x20ac;" horiz-adv-x="1730" d="M80 713q18 106 108 145q28 3 234 6q63 221 326 348q217 162 469 125q72 23 180 -18q121 -31 153 -119q6 -31 6 -49q-2 -29 -28 -74q-25 -41 -60 -28l-61 51l-37 30q-106 86 -213 41q-135 18 -274 -96q-180 -70 -262 -186q213 23 368 4q129 -14 117 -72q8 -94 -105 -135 q-23 -6 -143 -24q-260 -20 -352 -13l-10 -8q12 -88 24 -129q10 -2 336 2q252 63 318 84l24 10q43 6 43 -78q10 -74 -76 -116l-139 -39q-98 -6 -354 -43q194 -80 411 -129l318 90q35 16 49 14q57 0 47 -65q14 -72 -51 -142q-70 -43 -189 -73q-147 -16 -227 -11 q-201 12 -317 74q-190 63 -295 232q-205 -59 -228 -54q-61 -6 -51 68q-8 88 60 110q31 18 125 31q-8 43 -13 94q8 53 8 78q-111 -8 -165 -4q-64 -8 -74 68z" />
<glyph unicode="&#x2122;" horiz-adv-x="1187" d="M133 555q-2 27 18.5 45t41.5 25q61 0 180 28q114 28 221 13q23 -2 33 -11.5t8 -25.5l92 -285q23 86 107 256q-4 53 30 47q16 0 29 -31q2 -12 5 -28.5l8 -43l9 -46.5q16 -86 54 -154q14 -147 16 -156q0 -14 -20 -36q-20 -25 -39 -19q-14 -2 -25 23l-20 77q-10 61 -52 185 q-6 -74 -63 -213q-39 -57 -59 -58q-35 0 -35 39q-25 35 -45 129q-10 47 -41 117q6 -68 -6 -129q-2 -82 -39 -131q-4 -23 -14.5 -35t-24.5 -10q-31 2 -35 41q4 72 59 348q-61 43 -170 6q20 -8 21 -53q-4 -39 -15 -94q-10 -53 -10 -76l-4 -49q6 -78 -45 -90q-27 8 -33 96 q-12 145 29 274q-68 -3 -123 0q-41 0 -43 25z" />
<glyph unicode="&#xe000;" horiz-adv-x="1405" d="M0 1405h1405v-1405h-1405v1405z" />
</font>
</defs>
</svg>
