<?xml version="1.0" standalone="no"?>
<!DOCTYPE svg PUBLIC "-//W3C//DTD SVG 1.1//EN" "http://www.w3.org/Graphics/SVG/1.1/DTD/svg11.dtd" >
<svg xmlns="http://www.w3.org/2000/svg">
<metadata>
This is a custom SVG webfont generated by Font Squirrel.
Copyright   : Copyright c 2010 by Pablo Impallari wwwimpallaricom All rights reserved
Designer    : Pablo Impallari
Foundry     : Pablo Impallari wwwimpallaricom
Foundry URL : wwwimpallaricom
</metadata>
<defs>
<font id="webfont5Or7OQRZ" horiz-adv-x="1345" >
<font-face units-per-em="2048" ascent="1536" descent="-512" />
<missing-glyph horiz-adv-x="442" />
<glyph unicode="ij" horiz-adv-x="1015" d="M-63 0l217 1024h292l-217 -1024h-292zM94 -291q0 70 24.5 119t80.5 86q49 33 108 57q41 16 139 45l216 1008h294l-190 -897q223 106 313 303l-8 -162q-18 -84 -102 -141q-82 -53 -224 -94l-40 -197q-74 -348 -369 -348q-96 0 -170 63q-72 62 -72 158zM180 1294 q0 63 47 115q47 49 115 49t117 -49q47 -47 47 -115q0 -70 -47 -114q-51 -47 -117 -47q-68 0 -115 46.5t-47 114.5zM207 -262q0 -25 24 -45q27 -23 58 -23q35 0 69 37q29 31 50 123l24 119q-115 -39 -168 -84q-57 -49 -57 -127zM684 1298q0 63 47 115q47 49 115 49 q66 0 115 -49t49 -115q0 -70 -49 -114q-51 -47 -115 -47q-68 0 -115 46.5t-47 114.5z" />
<glyph unicode="&#xfb00;" horiz-adv-x="1150" d="M-358 -291q0 125 88 189q92 66 266 118l246 1170q74 348 372 348q68 0 131 -35q59 -33 89 -94q100 129 280 129q98 0 170 -61.5t72 -159.5q0 -47 -6 -84h-97q4 53 4 55q0 33 -22.5 51.5t-54.5 18.5q-102 0 -140 -162l-36 -168h204l-18 -82h-203l-231 -1106 q-74 -348 -373 -348q-166 0 -221 129q-98 -129 -279 -129q-96 0 -170 63q-71 62 -71 158zM-233 -262q0 -25 24 -45q27 -23 57 -23q37 0 70 37q35 39 51 123l25 119q-115 -39 -168 -84q-59 -49 -59 -127zM217 -289q23 -41 119 -41q37 0 69.5 39t51.5 121l49 233l-211 -38 q-51 -246 -78 -314zM305 76l211 37l174 829h-203zM504 1024h203l34 162q16 59 17 98q0 33 -23 51q-22 18 -55 19q-102 0 -139 -162z" />
<glyph unicode="&#xfb01;" horiz-adv-x="1146" d="M-412 -291q0 127 86 189q90 63 269 118l245 1170q20 98 76 176q53 76 123 108q72 35 131 50q57 14 121 14q416 0 416 -250q0 -66 -47 -108q-46 -43 -99 -43q-68 0 -104 24q-35 23 -35 86q0 43 18.5 74t42.5 31q14 0 19 -2q-2 70 -111 69q-92 0 -161 -67q-68 -66 -91 -156 l-34 -168h206l-16 -82h-207l-233 -1106q-74 -348 -373 -348q-96 0 -170 63q-72 62 -72 158zM-299 -262q0 -25 25 -45q27 -23 57 -23q37 0 70 37q31 35 51 123l24 119q-115 -39 -168 -84q-59 -49 -59 -127zM571 223q0 46 13 105l145 696h297l-147 -696q-10 -41 -11 -66 q0 -76 103 -76q33 0 67 21q41 25 66 43l74 61q45 41 63 56h70q-2 -2 -6.5 -7.5t-19.5 -20.5l-42 -44l-100 -102l-103 -89q-55 -47 -116 -77q-53 -27 -99 -27q-254 0 -254 223z" />
<glyph unicode="&#xfb02;" horiz-adv-x="1183" d="M-395 -291q0 125 88 189q92 66 266 118l246 1170q74 348 373 348q80 0 186 -23q88 -18 170 -47q41 -14 186 -71l-225 -1065q-10 -41 -10 -66q0 -76 102 -76q33 0 68 21q41 25 65 43l74 61q45 41 63 56h70q-2 -2 -6 -7.5t-19.5 -20.5t-41.5 -44q-61 -66 -103 -102 q-37 -35 -100 -89q-55 -47 -117 -77q-53 -27 -98 -27q-254 0 -254 223q0 46 12 105l221 1044q-74 33 -168 33q-106 0 -139 -162l-45 -219h190l-16 -82h-190l-234 -1106q-74 -348 -373 -348q-96 0 -170 63q-71 62 -71 158zM-283 -262q0 -25 25 -45q27 -23 57 -23q37 0 72 37 q33 37 49 123l25 119q-115 -39 -168 -84q-60 -49 -60 -127z" />
<glyph unicode="&#xfb03;" horiz-adv-x="1499" d="M-428 -291q0 127 86 189q90 63 268 118l246 1170q74 348 373 348q72 0 137 -39q61 -37 88 -100q117 139 322 139q86 0 135 -6q51 -6 100 -26.5t82 -69.5q31 -47 43 -119q2 -6 2 -29q0 -63 -45 -106q-49 -45 -100 -45q-68 0 -105 24q-35 23 -35 86q0 104 64 105l16 -2 q-4 43 -16 55q-14 14 -49 14q-158 0 -209 -223l-39 -168h491l-145 -696l-10 -66q0 -76 102 -76q33 0 68 21q41 25 65 43l74 61l64 56h69l-69 -72q-78 -80 -101 -102q-37 -35 -100 -89q-55 -47 -117 -77q-53 -27 -98 -27q-254 0 -254 223q0 46 12 105l127 614h-194 l-230 -1106q-74 -348 -373 -348q-163 0 -221 135q-101 -135 -282 -135q-96 0 -170 63q-72 62 -72 158zM-303 -262q0 -25 24 -45q27 -23 58 -23q37 0 71 37q29 31 50 123l24 119q-115 -39 -168 -84q-59 -49 -59 -127zM154 -274v-9q0 -25 28 -43q25 -16 88 -16q31 0 68 45 q39 49 53 127l47 231l-213 -45l-39 -180q-7 -36 -32 -110zM238 74l211 37l176 831h-203zM438 1024h203q14 70 18 86q8 41 13 59q2 10 5 17.5t3 13.5q2 8 2 19q0 2 1 6l1 4q4 53 4 55q0 33 -22 51t-56 19q-109 0 -139 -162z" />
<glyph unicode="&#xfb04;" horiz-adv-x="1564" d="M-426 -291q0 127 86 189q90 63 268 118l246 1170q74 348 373 348q70 0 131 -37q63 -39 90 -94q96 133 272 133q131 0 248 -35q109 -33 266 -112l-223 -1061q-10 -41 -10 -66q0 -76 102 -76q33 0 68 21q41 25 65 43l74 61l64 56h69l-69 -72q-78 -80 -101 -102 q-37 -35 -100 -89q-59 -49 -115 -77q-53 -27 -100 -27q-254 0 -254 223q0 46 12 105l221 1044q-74 33 -131 33q-100 0 -139 -162l-51 -219h197l-17 -82h-196l-228 -1106q-74 -348 -373 -348q-70 0 -133 29q-70 33 -108 82q-98 -111 -262 -111q-96 0 -170 63q-72 62 -72 158z M-301 -262q0 -25 25 -45q27 -23 57 -23q35 0 69 37q31 35 52 123l24 119q-115 -39 -168 -84q-59 -49 -59 -127zM141 -307q34 -31 111 -31q39 0 82 43q41 41 59 125l49 231l-217 -45l-37 -180q-16 -75 -47 -143zM238 76l215 35l174 831h-205zM438 1024h205l35 162q8 35 8 74 q0 94 -74 94q-106 0 -139 -162z" />
<glyph unicode="Th" horiz-adv-x="2037" d="M12 1001q0 223 183 377q184 156 538 156q41 0 233.5 -26.5t319.5 -26.5q172 0 248 49q-27 -49 -49 -100q-18 -43 -49 -173q-37 -154 -78 -362q170 129 293 129q88 0 161 -78q74 -77 74 -178q0 -29 -4 -49l-84 -391q-10 -45 -10 -66q0 -76 102 -76q33 0 68 21q41 25 65 43 l74 61l64 56h69l-69 -72q-78 -80 -101 -102q-37 -35 -100 -89q-55 -47 -117 -77q-53 -27 -98 -27q-254 0 -254 223q0 46 12 105l78 368q6 29 6 54q0 55 -26.5 87.5t-67.5 32.5q-74 0 -152 -59l-151 -811h-295l281 1307q-33 6 -271 34l-289 -1341h-294l292 1360 q-197 -10 -303 -100q-109 -92 -108 -318q0 -45 6 -75.5t14 -45t8 -18.5q-109 0 -165 47q-54 45 -54 151z" />
<glyph unicode="Ti" horiz-adv-x="1536" d="M12 1001q0 109 39 199q39 92 119 168q84 80 219 123q139 43 322 43q16 0 219 -16.5t307 -16.5q162 0 236 29q29 -92 28 -160q0 -104 -51 -149q-53 -47 -119 -47q-25 0 -86 14q-47 10 -96 29q-23 8 -54.5 18t-72.5 25q-43 14 -73.5 26t-51.5 19l-281 -1305h-294l294 1374 q-43 6 -81 6q-332 0 -332 -438q0 -45 6 -75.5t14 -45t8 -18.5q-109 0 -165 47q-54 45 -54 151zM956 223q0 46 13 105l147 696h295l-147 -696q-8 -41 -9 -64q0 -78 103 -78q33 0 67 21q41 25 66 43l74 61q45 41 63 56h70q-2 -2 -6 -7.5t-19.5 -20.5t-42.5 -44l-100 -102 l-103 -89q-55 -47 -116 -77q-53 -27 -99 -27q-256 0 -256 223z" />
<glyph unicode="as" horiz-adv-x="1744" d="M-37 247.5q0 106.5 17 217.5q14 100 55 207q39 102 98 180q58 77 154 123q98 47 213 47q78 0 137 -51l12 53h293l-145 -696q-10 -57 -11 -76q0 -66 64 -66q35 0 86 76q0 121 45 193q47 76 111 77q86 156 155 472l297 61v-29q0 -182 69.5 -376.5t69.5 -303.5l-2 -43 q72 61 134 133l53 -69l-221 -187q-90 -190 -361 -190q-139 0 -227 39q-80 35 -109 123q-125 -162 -207 -162q-209 0 -245 160q-123 -172 -281 -172q-137 0 -194 75q-60 78 -60 184.5zM240 303q0 -145 118 -145q59 0 134 104q0 25 10 66l114 542q-43 37 -100 37 q-113 0 -194 -192q-82 -191 -82 -412zM1038 260q0 -59 56 -100q53 -39 120 -39q59 0 114.5 67.5t55.5 176.5q0 45 -47 198q-47 152 -49 293q0 -2 -5 -18.5t-14 -50t-22 -72.5q-35 -117 -65 -193q68 -23 67 -114q0 -57 -41 -94.5t-94 -37.5q-37 0 -72 17q-4 -29 -4 -33z" />
<glyph unicode="asx" horiz-adv-x="2443" d="M-37 247.5q0 106.5 17 217.5q14 100 55 207q39 102 98 180q58 77 154 123q98 47 213 47q78 0 137 -51l12 53h293l-145 -696q-10 -57 -11 -76q0 -66 64 -66q35 0 86 76q0 121 45 193q47 76 111 77q86 156 155 472l297 61v-29q0 -182 69.5 -376.5t69.5 -303.5l-2 -43 q31 27 117 113l-147 598h297l104 -420q203 168 209 305q-33 -4 -35 -4q-96 0 -96 115q0 49 39 74q43 27 100 26q55 0 84 -53q31 -55 31 -131q0 -143 -305 -432l47 -187q10 -47 22 -73q10 -23 35 -41q23 -16 70 -17q33 0 67 21q41 25 66 43l74 61q45 41 63 56h70 q-2 -2 -6 -7.5t-19.5 -20.5t-42.5 -44l-100 -102l-103 -89q-55 -47 -116 -77q-53 -27 -99 -27q-137 0 -190 59q-51 57 -92 258l-6 21l-172 -148q-90 -190 -361 -190q-139 0 -227 39q-80 35 -109 123q-125 -162 -207 -162q-209 0 -245 160q-123 -172 -281 -172 q-137 0 -194 75q-60 78 -60 184.5zM240 303q0 -145 118 -145q59 0 134 104q0 25 10 66l114 542q-43 37 -100 37q-113 0 -194 -192q-82 -191 -82 -412zM1038 260q0 -59 56 -100q53 -39 120 -39q59 0 114.5 67.5t55.5 176.5q0 45 -47 198q-47 152 -49 293q0 -2 -5 -18.5 t-14 -50t-22 -72.5q-35 -117 -65 -193q68 -23 67 -114q0 -57 -41 -94.5t-94 -37.5q-37 0 -72 17q-4 -29 -4 -33z" />
<glyph unicode="as&#x7a;" horiz-adv-x="2502" d="M-37 247.5q0 106.5 17 217.5q14 100 55 207q39 102 98 180q58 77 154 123q98 47 213 47q78 0 137 -51l12 53h293l-145 -696q-10 -57 -11 -76q0 -66 64 -66q35 0 86 76q0 123 45 193q47 74 111 75q74 139 145 469l297 62v-29q0 -135 39 -262q35 -115 74 -217 q37 -98 36 -197q0 -156 -100 -256t-297 -100q-139 0 -227 39q-80 35 -109 123q-125 -162 -207 -162q-209 0 -245 160q-123 -172 -281 -172q-137 0 -194 75q-60 78 -60 184.5zM240 303q0 -145 118 -145q59 0 134 104q0 25 10 66l114 542q-43 37 -100 37q-113 0 -194 -192 q-82 -191 -82 -412zM1038 260q0 -59 56 -100q53 -39 120 -39q59 0 114.5 67.5t55.5 176.5q0 45 -47 198q-47 152 -49 293q0 -2 -5 -18.5t-14 -50t-22 -72.5q-35 -117 -65 -193q68 -23 67 -114q-4 -59 -41 -95q-41 -37 -94 -37q-37 0 -72 17q-4 -29 -4 -33zM1624 0l539 938 q-127 4 -150 4q-113 0 -112 -45q15 0 24 -18q10 -20 10 -41q0 -123 -129 -123q-41 0 -69 35q-27 33 -27 84q0 84 62 137q63 53 178 53h551l-539 -938q127 -4 149 -4q113 0 113 45q-14 0 -26 16q-10 12 -11 41q0 125 131 125q41 0 70 -35q27 -33 27 -84q0 -84 -62 -137 q-63 -53 -178 -53h-551z" />
<glyph unicode="a&#x7a;" horiz-adv-x="1812" d="M-37 247.5q0 106.5 17 217.5q14 100 55 207q39 102 98 180q58 77 154 123q98 47 213 47q78 0 137 -51l12 53h293l-147 -696q-10 -45 -11 -70q0 -76 74 -76q39 0 53 6q-29 -84 -67 -127q-41 -45 -70 -53q-27 -8 -76 -8q-170 0 -202 156q-123 -168 -279 -168 q-137 0 -194 75q-60 78 -60 184.5zM240 303q0 -145 118 -145q59 0 134 104q0 25 10 66l114 542q-43 37 -100 37q-113 0 -194 -192q-82 -191 -82 -412zM911 0l539 938q-127 4 -150 4q-113 0 -112 -45q15 0 24 -18q10 -20 11 -41q0 -123 -129 -123q-41 0 -70 35q-27 33 -27 84 q0 84 62 137q63 53 178 53h551l-539 -938q127 -4 150 -4q113 0 112 45q-12 0 -24 16.5t-12 40.5q0 125 131 125q41 0 69 -35q27 -33 27 -84q0 -84 -62 -137q-63 -53 -178 -53h-551z" />
<glyph unicode="&#xe1;s" horiz-adv-x="1794" d="M-37 247.5q0 106.5 17 217.5q14 100 55 207q39 102 98 180q58 77 154 123q98 47 213 47q78 0 137 -51l12 53h293l-145 -696q-10 -57 -11 -76q0 -66 64 -66q35 0 86 76q0 121 45 193q47 76 111 77q86 156 155 472l297 61v-29q0 -182 69.5 -376.5t69.5 -303.5l-2 -43 q72 61 134 133l53 -69l-221 -187q-90 -190 -361 -190q-139 0 -227 39q-80 35 -109 123q-125 -162 -207 -162q-209 0 -245 160q-123 -172 -281 -172q-137 0 -194 75q-60 78 -60 184.5zM240 303q0 -145 118 -145q59 0 134 104q0 25 10 66l114 542q-43 37 -100 37 q-113 0 -194 -192q-82 -191 -82 -412zM496 1149l186 387h215l-248 -387h-153zM1038 260q0 -59 56 -100q53 -39 120 -39q59 0 114.5 67.5t55.5 176.5q0 45 -47 198q-47 152 -49 293q0 -2 -5 -18.5t-14 -50t-22 -72.5q-35 -117 -65 -193q68 -23 67 -114q0 -57 -41 -94.5 t-94 -37.5q-37 0 -72 17q-4 -29 -4 -33z" />
<glyph unicode="&#xe1;sx" horiz-adv-x="2443" d="M-37 247.5q0 106.5 17 217.5q14 100 55 207q39 102 98 180q58 77 154 123q98 47 213 47q78 0 137 -51l12 53h293l-145 -696q-10 -57 -11 -76q0 -66 64 -66q35 0 86 76q0 121 45 193q47 76 111 77q86 156 155 472l297 61v-29q0 -182 69.5 -376.5t69.5 -303.5l-2 -43 q31 27 117 113l-147 598h297l104 -420q203 168 209 305q-33 -4 -35 -4q-96 0 -96 115q0 49 39 74q43 27 100 26q55 0 84 -53q31 -55 31 -131q0 -143 -305 -432l47 -187q10 -47 22 -73q10 -23 35 -41q23 -16 70 -17q33 0 67 21q41 25 66 43l74 61q45 41 63 56h70 q-2 -2 -6 -7.5t-19.5 -20.5t-42.5 -44l-100 -102l-103 -89q-55 -47 -116 -77q-53 -27 -99 -27q-137 0 -190 59q-51 57 -92 258l-6 21l-172 -148q-90 -190 -361 -190q-139 0 -227 39q-80 35 -109 123q-125 -162 -207 -162q-209 0 -245 160q-123 -172 -281 -172 q-137 0 -194 75q-60 78 -60 184.5zM240 303q0 -145 118 -145q59 0 134 104q0 25 10 66l114 542q-43 37 -100 37q-113 0 -194 -192q-82 -191 -82 -412zM496 1149l186 387h215l-248 -387h-153zM1038 260q0 -59 56 -100q53 -39 120 -39q59 0 114.5 67.5t55.5 176.5 q0 45 -47 198q-47 152 -49 293q0 -2 -5 -18.5t-14 -50t-22 -72.5q-35 -117 -65 -193q68 -23 67 -114q0 -57 -41 -94.5t-94 -37.5q-37 0 -72 17q-4 -29 -4 -33z" />
<glyph unicode="&#xe1;s&#x7a;" horiz-adv-x="2453" d="M-37 247.5q0 106.5 17 217.5q14 100 55 207q39 102 98 180q58 77 154 123q98 47 213 47q78 0 137 -51l12 53h293l-145 -696q-10 -57 -11 -76q0 -66 64 -66q35 0 86 76q0 123 45 193q47 74 111 75q74 139 145 469l297 62v-29q0 -135 39 -262q35 -115 74 -217 q37 -98 36 -197q0 -156 -100 -256t-297 -100q-139 0 -227 39q-80 35 -109 123q-125 -162 -207 -162q-209 0 -245 160q-123 -172 -281 -172q-137 0 -194 75q-60 78 -60 184.5zM240 303q0 -145 118 -145q59 0 134 104q0 25 10 66l114 542q-43 37 -100 37q-113 0 -194 -192 q-82 -191 -82 -412zM496 1149l186 387h215l-248 -387h-153zM1038 260q0 -59 56 -100q53 -39 120 -39q59 0 114.5 67.5t55.5 176.5q0 45 -47 198q-47 152 -49 293q0 -2 -5 -18.5t-14 -50t-22 -72.5q-35 -117 -65 -193q68 -23 67 -114q-4 -59 -41 -95q-41 -37 -94 -37 q-37 0 -72 17q-4 -29 -4 -33zM1624 0l539 938q-127 4 -150 4q-113 0 -112 -45q15 0 24 -18q10 -20 10 -41q0 -123 -129 -123q-41 0 -69 35q-27 33 -27 84q0 84 62 137q63 53 178 53h551l-539 -938q127 -4 149 -4q113 0 113 45q-14 0 -26 16q-10 12 -11 41q0 125 131 125 q41 0 70 -35q27 -33 27 -84q0 -84 -62 -137q-63 -53 -178 -53h-551z" />
<glyph unicode="bs" horiz-adv-x="1626" d="M-37 227q0 45 12 101l228 1065l303 41l-98 -465q82 59 176 59q137 0 198.5 -78t61.5 -182q0 -51 -8 -127q164 129 286 348l277 62v-37q0 -143 33 -254q47 -162 65 -211q33 -92 33 -193q0 -37 -4 -65q106 92 174 172l53 -86q-57 -63 -274 -232q-92 -145 -320 -145 q-319 0 -319 227q0 154 75 228q80 76 140 75q106 0 106 -122q0 -55 -45 -100.5t-100 -45.5q-41 0 -72 25q-6 -20 -6 -41q0 -58 43 -92q41 -33 117 -33q57 0 106 67q51 70 51 174q0 51 -38 199q-40 151 -43 295q-68 -90 -162 -182q-101 -98 -203 -172q-59 -219 -186 -363 q-129 -145 -322 -145q-338 0 -338 233zM254 215q0 -47 20.5 -61.5t69.5 -14.5q72 0 129 100.5t98 247.5q-27 25 -26 66q0 84 63 129q6 43 6 72q0 84 -34 118q-33 33 -82 33q-23 0 -58 -8q-37 -8 -53 -20l-117 -549q-16 -82 -16 -113z" />
<glyph unicode="bsx" horiz-adv-x="2295" d="M-37 227q0 45 12 101l228 1065l303 41l-98 -465q82 59 176 59q137 0 198.5 -78t61.5 -182q0 -49 -10 -135q168 127 299 356l276 62q0 -123 25 -228q25 -100 55 -164q25 -47 53 -143q25 -80 25 -160q0 -37 -6 -71q78 66 153 145l-145 594h297l104 -420q203 168 209 305 q-33 -4 -35 -4q-96 0 -96 115q0 49 39 74q43 27 100 26q55 0 84 -53q31 -55 31 -131q0 -143 -305 -432l47 -187q10 -47 22 -73q10 -23 35 -41q23 -16 70 -17q33 0 67 21q41 25 66 43l74 61q45 41 63 56h70q-2 -2 -6 -7.5t-19.5 -20.5t-42.5 -44l-100 -102l-102 -89 q-59 -49 -115 -77q-53 -27 -101 -27q-137 0 -190 59q-51 57 -92 258l-6 27l-232 -197q-100 -147 -336 -147q-150 0 -239 66q-88 63 -88 180q0 123 61 207q61 82 119 82q80 0 114.5 -29t34.5 -98q0 -55 -45 -100.5t-100 -45.5q-41 0 -72 25q-2 -6 -2 -31q0 -61 39 -98 q40 -37 117 -37q59 0 109 65q51 68 51 176q0 45 -41 199q-40 151 -43 295q-160 -221 -381 -371q-59 -213 -186.5 -352t-315.5 -139q-338 0 -338 233zM254 215q0 -47 20.5 -61.5t69.5 -14.5q80 0 143 125q66 127 97 266q31 137 30 224q0 84 -34 118q-33 33 -82 33 q-23 0 -58 -8q-37 -8 -53 -20l-117 -549q-16 -82 -16 -113z" />
<glyph unicode="bs&#x7a;" horiz-adv-x="2414" d="M-37 227q0 45 12 101l228 1065l303 41l-98 -465q82 59 176 59q137 0 198.5 -78t61.5 -182q0 -51 -10 -143q174 125 307 364l276 62q0 -158 33 -277q39 -143 66 -219q33 -96 32 -199q0 -162 -88 -258q-89 -98 -282 -98q-150 0 -240 66q-88 63 -88 180q0 123 61 207 q61 82 119 82q80 0 115 -29t35 -98q0 -57 -43 -101q-45 -45 -103 -45q-41 0 -71 25q-2 -6 -2 -31q0 -61 40 -98q39 -37 115 -37q59 0 109 65q49 63 49 176q0 51 -39 199q-40 151 -43 295q-71 -95 -178 -203q-102 -102 -213 -174q-59 -211 -187 -348q-129 -137 -313 -137 q-338 0 -338 233zM254 215q0 -47 20.5 -61.5t69.5 -14.5q80 0 143 125q66 127 97 266q31 137 30 224q0 84 -34 118q-33 33 -82 33q-23 0 -58 -8q-37 -8 -53 -20l-117 -549q-16 -82 -16 -113zM1505 0l539 938q-127 4 -150 4q-113 0 -112 -45q15 0 24 -18q10 -20 11 -41 q0 -123 -129 -123q-41 0 -70 35q-27 33 -27 84q0 84 62 137q63 53 178 53h551l-539 -938q127 -4 150 -4q113 0 112 45q-14 0 -26 16q-10 12 -11 41q0 125 132 125q41 0 69 -35q27 -33 27 -84q0 -84 -62 -137q-63 -53 -178 -53h-551z" />
<glyph unicode="cx" horiz-adv-x="1482" d="M-27 336q0 88 17 186q16 96 55 187q41 94 98.5 163.5t149.5 112.5q96 45 207 45q225 0 225 -141q0 -31 -10 -68h-117q10 41 10 58q0 70 -76 69q-119 0 -200 -184q-82 -182 -82 -371q0 -219 160 -219q82 0 211 62q123 59 270 157l-133 631h297l90 -424q176 170 190 281 q-33 -4 -35 -4q-96 0 -96 114q0 51 39 76t100 25q49 0 84 -43q35 -45 35 -105q0 -63 -82 -190q-78 -119 -213 -258l39 -179q12 -52 19 -73q6 -20 32 -41q23 -16 70 -17q33 0 68 21q41 25 65 43l74 61q45 41 63 56h70q-2 -2 -6 -7.5t-19.5 -20.5t-42.5 -44q-61 -66 -102 -102 q-37 -35 -100 -89q-55 -47 -117 -77q-53 -27 -98 -27q-131 0 -178 47q-49 49 -86 227q-360 -276 -623 -276q-133 0 -227.5 88t-94.5 250z" />
<glyph unicode="c&#x7a;" horiz-adv-x="1564" d="M-27 336q0 88 17 186q16 96 55 187q41 94 98.5 163.5t149.5 112.5q96 45 207 45q209 0 209 -141q0 -39 -11 -68h-116q10 41 10 58q0 35 -14 53q-12 16 -46 16q-119 0 -200 -184q-82 -182 -82 -371q0 -219 147.5 -219t286.5 121q0 -135 -109 -215q-108 -80 -301 -80 q-137 0 -219 82t-82 254zM664 0l559 938q-41 0 -72 2t-64 2q-94 0 -94 -45q15 0 25 -18q10 -20 10 -41q0 -123 -129 -123q-41 0 -70 35q-27 33 -26 84q0 84 61 137q63 53 178 53h519l-560 -938q127 -4 150 -4q113 0 113 45q-12 0 -24.5 16.5t-12.5 40.5q0 125 131 125 q41 0 69 -35q27 -33 27 -84q0 -84 -61 -137q-63 -53 -179 -53h-550z" />
<glyph unicode="es" horiz-adv-x="1447" d="M-37 326q0 109 25 223q27 121 75 231q51 117 152 189q100 74 231 73q262 0 263 -213q0 -176 -146 -284q-150 -113 -317 -133q-6 -49 -6 -88q0 -90 49 -133.5t119 -43.5q115 0 206 150q6 104 52 168q46 65 104 67q86 156 156 472l297 61v-29q0 -141 34 -264 q18 -68 70 -219q35 -104 35 -197q0 -33 -2 -43q72 61 133 133l53 -69l-221 -187q-88 -190 -360 -190q-150 0 -236 41q-82 39 -106 137q-141 -178 -357 -178q-143 0 -223 92.5t-80 233.5zM262 510q137 4 230 98q90 94 94 211q0 115 -72 115q-55 0 -106 -68q-49 -66 -89 -159 q-34 -86 -57 -197zM719 295q0 -174 174 -174q59 0 114.5 67.5t55.5 176.5q0 45 -47 198q-47 152 -49 293q0 -2 -5.5 -18.5t-14.5 -50t-21 -72.5q-43 -143 -66 -193q68 -23 68 -114q0 -57 -39 -95q-41 -37 -96 -37q-37 1 -74 19z" />
<glyph unicode="esx" horiz-adv-x="2174" d="M-37 326q0 109 25 223q27 121 75 231q51 117 152 189q100 74 231 73q262 0 263 -213q0 -176 -146 -284q-150 -113 -317 -133q-6 -49 -6 -88q0 -90 49 -133.5t119 -43.5q115 0 217 164q8 98 53 158q45 61 100 63q86 156 156 472l297 61v-29q0 -141 35 -264q18 -68 69 -219 q35 -104 35 -197q0 -33 -2 -43q72 61 133 133l6 -10l-143 588h297l104 -420q203 168 209 305q-33 -4 -35 -4q-96 0 -96 115q0 49 39 74q43 27 100.5 26.5t86 -51.5t28.5 -123q0 -147 -305 -442l47 -187q14 -57 21 -73q8 -20 36 -41q23 -16 70 -17q33 0 68 21q41 25 65 43 l74 61q45 41 63 56h70q-2 -2 -6 -7.5t-19.5 -20.5t-42.5 -44q-61 -66 -102 -102q-37 -35 -100 -89q-59 -49 -115 -77q-53 -27 -100 -27q-137 0 -191 59q-51 57 -92 258l-10 39l-195 -166q-88 -190 -360 -190q-157 0 -240 43q-80 41 -102 143q-143 -186 -365 -186 q-143 0 -223 92.5t-80 233.5zM262 510q137 4 230 98q90 94 94 211q0 115 -72 115q-55 0 -106 -68q-49 -66 -89 -159q-34 -86 -57 -197zM727 295q0 -174 174 -174q59 0 114.5 67.5t55.5 176.5q0 45 -47 198q-47 152 -49 293q0 -2 -5 -18.5l-14.5 -50l-21.5 -72.5 q-43 -143 -66 -193q68 -23 68 -114q0 -57 -39 -95q-41 -37 -96 -37q-37 1 -74 19z" />
<glyph unicode="es&#x7a;" horiz-adv-x="2160" d="M-37 326q0 109 25 223q27 121 75 231q51 117 152 189q100 74 231 73q262 0 263 -213q0 -176 -146 -284q-150 -113 -317 -133q-6 -49 -6 -88q0 -90 49 -133.5t119 -43.5q106 0 200 140q4 109 47 174q45 68 109 69q74 139 145 469l297 62v-29q0 -143 37 -262 q27 -84 76 -217q37 -98 37 -197q0 -156 -100.5 -256t-297.5 -100q-147 0 -233 41q-82 39 -107 131q-141 -172 -352 -172q-143 0 -223 92.5t-80 233.5zM262 510q137 4 230 98q90 94 94 211q0 115 -72 115q-55 0 -106 -68q-49 -66 -89 -159q-34 -86 -57 -197zM713 295 q0 -174 174 -174q59 0 114.5 67.5t55.5 176.5q0 45 -47 198q-47 152 -49 293q0 -2 -5.5 -18.5t-14.5 -50t-21 -72.5q-43 -143 -66 -193q68 -23 68 -114q-4 -59 -41 -95q-41 -37 -95 -37q-36 1 -73 19zM1282 0l539 938q-127 4 -150 4q-113 0 -112 -45q15 0 24 -18 q10 -20 10 -41q0 -123 -129 -123q-41 0 -69 35q-27 33 -27 84q0 84 62 137q63 53 178 53h551l-539 -938q127 -4 149 -4q113 0 113 45q-14 0 -27 16q-10 12 -10 41q0 125 131 125q41 0 70 -35q27 -33 27 -84q0 -84 -62 -137q-63 -53 -178 -53h-551z" />
<glyph unicode="ex" horiz-adv-x="1476" d="M-27 326q0 109 25 223q27 121 76 231q51 117 151 189q102 74 232 73q262 0 262 -213q0 -176 -146 -284q-150 -113 -317 -133q-6 -49 -6 -88q0 -94 49 -134q51 -41 119 -40q193 0 471 223l-111 651h297l70 -414q175 197 196 301q-33 -4 -34 -4q-96 0 -97 115q0 49 39 74 q43 27 101 26q51 0 88 -37q35 -35 35 -106q0 -78 -78 -209q-72 -121 -230 -285l29 -168q12 -70 35 -102q20 -29 86 -29q33 0 67 21q41 25 66 43l74 61q45 41 63 56h70q-2 -2 -6 -7.5t-19.5 -20.5t-42.5 -44l-100 -102l-103 -89q-55 -47 -116 -77q-53 -27 -99 -27 q-126 0 -178 49q-51 47 -82 211q-347 -258 -633 -258q-143 0 -223 92.5t-80 231.5zM272 510q135 3 228 98q92 96 96 211q0 115 -72 115q-52 0 -104 -68q-49 -66 -88 -159q-40 -99 -60 -197z" />
<glyph unicode="e&#x7a;" horiz-adv-x="1572" d="M-70 326q0 109 25 223q27 121 76 231q51 117 151 189q100 74 232 73q262 0 262 -213q0 -176 -146 -284q-150 -113 -317 -133q-6 -49 -6 -88q0 -176 147 -177q119 0 262 132q0 -279 -383 -279q-143 0 -223 92.5t-80 233.5zM229 510q135 3 228 98q92 96 96 211 q0 115 -72 115q-52 0 -104 -68q-49 -66 -88 -159q-40 -99 -60 -197zM664 0l538 938q-41 0 -71.5 2t-63.5 2q-94 0 -94 -45q15 0 24 -18q10 -20 11 -41q0 -123 -129 -123q-41 0 -70 35q-27 33 -27 84q0 84 62 137q63 53 178 53h518l-539 -938q127 -4 150 -4q113 0 113 45 q-12 0 -24.5 16.5t-12.5 40.5q0 125 131 125q41 0 69 -35q27 -33 27 -84q0 -84 -61 -137q-63 -53 -179 -53h-550z" />
<glyph unicode="&#xe9;s" horiz-adv-x="1458" d="M-37 326q0 109 25 223q27 121 75 231q51 117 152 189q100 74 231 73q262 0 263 -213q0 -176 -146 -284q-150 -113 -317 -133q-6 -49 -6 -88q0 -90 49 -133.5t119 -43.5q115 0 206 150q6 104 52 168q46 65 104 67q86 156 156 472l297 61v-29q0 -141 34 -264 q18 -68 70 -219q35 -104 35 -197q0 -33 -2 -43q72 61 133 133l53 -69l-221 -187q-88 -190 -360 -190q-150 0 -236 41q-82 39 -106 137q-141 -178 -357 -178q-143 0 -223 92.5t-80 233.5zM262 510q137 4 230 98q90 94 94 211q0 115 -72 115q-55 0 -106 -68q-49 -66 -89 -159 q-34 -86 -57 -197zM496 1149l186 387h215l-248 -387h-153zM719 295q0 -174 174 -174q59 0 114.5 67.5t55.5 176.5q0 45 -47 198q-47 152 -49 293q0 -2 -5.5 -18.5t-14.5 -50t-21 -72.5q-43 -143 -66 -193q68 -23 68 -114q0 -57 -39 -95q-41 -37 -96 -37q-37 1 -74 19z" />
<glyph unicode="&#xe9;sx" horiz-adv-x="2146" d="M-37 326q0 109 25 223q27 121 75 231q51 117 152 189q100 74 231 73q262 0 263 -213q0 -176 -146 -284q-150 -113 -317 -133q-6 -49 -6 -88q0 -90 49 -133.5t119 -43.5q111 0 202 144q4 111 49 174q47 66 107 67q86 156 156 472l297 61v-29q0 -141 34 -264 q18 -68 70 -219q35 -104 35 -197q0 -33 -2 -43q92 86 131 131l-141 580h296l105 -420q203 168 209 305q-33 -4 -35 -4q-96 0 -96 115q0 49 39 74q43 27 100 26q55 0 84 -53q31 -55 31 -131q0 -143 -305 -432l47 -187q14 -57 20 -73q8 -20 37 -41q23 -16 70 -17q33 0 67 21 q41 25 66 43q28 22 73 61q45 41 64 56h70q-2 -2 -6.5 -7.5t-19.5 -20.5l-42 -44l-100 -102l-103 -89q-55 -47 -116 -77q-53 -27 -99 -27q-137 0 -192 63q-55 65 -99 289l-190 -162q-88 -190 -360 -190q-147 0 -234 41q-82 39 -106 133q-137 -174 -355 -174q-143 0 -223 92.5 t-80 233.5zM262 510q137 4 230 98q90 94 94 211q0 115 -72 115q-55 0 -106 -68q-49 -66 -89 -159q-34 -86 -57 -197zM496 1149l186 387h215l-248 -387h-153zM715 295q0 -174 174 -174q59 0 114.5 67.5t55.5 176.5q0 45 -47 198q-47 152 -49 293q0 -2 -5.5 -18.5t-14.5 -50 t-21 -72.5q-43 -143 -66 -193q68 -23 68 -114q0 -57 -39 -95q-41 -37 -97 -37q-36 1 -73 19z" />
<glyph unicode="&#xe9;s&#x7a;" horiz-adv-x="2154" d="M-37 326q0 109 25 223q27 121 75 231q51 117 152 189q100 74 231 73q262 0 263 -213q0 -176 -146 -284q-150 -113 -317 -133q-6 -49 -6 -88q0 -90 49 -133.5t119 -43.5q106 0 194 132q4 117 47 180q47 70 109 71q74 139 145 469l297 62v-29q0 -123 23 -215 q23 -90 53 -160q23 -49 51 -143q23 -74 23 -158q0 -156 -100.5 -256t-297.5 -100q-150 0 -229 39q-84 41 -109 129q-141 -168 -348 -168q-143 0 -223 92.5t-80 233.5zM262 510q137 4 230 98q90 94 94 211q0 115 -72 115q-55 0 -106 -68q-49 -66 -89 -159q-34 -86 -57 -197z M496 1149l186 387h215l-248 -387h-153zM707 295q0 -174 174 -174q59 0 114.5 67.5t55.5 176.5q0 45 -47 198q-47 152 -50 293q0 -2 -5 -18.5t-14 -50t-22 -72.5q-35 -117 -65 -193q68 -23 67 -114q-4 -59 -41 -95q-39 -37 -94 -37q-36 1 -73 19zM1282 0l539 938 q-127 4 -150 4q-113 0 -112 -45q15 0 24 -18q10 -20 10 -41q0 -123 -129 -123q-41 0 -69 35q-27 33 -27 84q0 84 62 137q63 53 178 53h551l-539 -938q127 -4 149 -4q113 0 113 45q-14 0 -27 16q-10 12 -10 41q0 125 131 125q41 0 70 -35q27 -33 27 -84q0 -84 -62 -137 q-63 -53 -178 -53h-551z" />
<glyph unicode="&#xe9;x" horiz-adv-x="1476" d="M-27 326q0 109 25 223q27 121 76 231q51 117 151 189q102 74 232 73q262 0 262 -213q0 -176 -146 -284q-150 -113 -317 -133q-6 -49 -6 -88q0 -94 49 -134q51 -41 119 -40q201 0 481 237l-137 637h297l84 -397q166 190 180 284q-33 -4 -35 -4q-96 0 -96 115q0 49 39 74 q43 27 100 26q49 0 86 -36.5t37 -106.5q0 -172 -285 -475l41 -187q12 -52 19 -73q6 -20 33 -41q23 -16 69 -17q33 0 68 21q41 25 65 43l74 61l64 56h69l-69 -72q-78 -80 -101 -102q-37 -35 -100 -89q-55 -47 -117 -77q-53 -27 -98 -27q-129 0 -176 49q-45 49 -86 227 q-352 -274 -648 -274q-143 0 -223 92.5t-80 231.5zM272 510q135 3 228 98q92 96 96 211q0 115 -72 115q-52 0 -104 -68q-49 -66 -88 -159q-40 -99 -60 -197zM496 1149l186 387h215l-248 -387h-153z" />
<glyph unicode="fft" horiz-adv-x="1564" d="M-426 -291q0 127 86 189q90 63 268 118l246 1170q74 348 373 348q70 0 131 -37q63 -39 90 -94q98 133 272 133q131 0 248 -35q109 -33 266 -112l-77 -365h65l-16 -82h-66l-129 -614q-10 -41 -10 -66q0 -76 102 -76q33 0 68 21q41 25 65 43l74 61l64 56h69l-69 -72 q-78 -80 -101 -102q-37 -35 -100 -89q-59 -49 -115 -77q-53 -27 -100 -27q-254 0 -254 223q0 46 12 105l129 614h-241l-232 -1106q-74 -348 -373 -348q-70 0 -133 29q-70 33 -108 82q-98 -111 -262 -111q-96 0 -170 63q-72 62 -72 158zM-301 -262q0 -25 25 -45 q27 -23 57 -23q35 0 69 37q31 35 52 123l24 119q-115 -39 -168 -84q-59 -49 -59 -127zM141 -307q34 -31 111 -31q39 0 82 43q41 41 59 125l49 231l-217 -45l-37 -180q-16 -75 -47 -143zM238 74l110 20l48.5 8l38 6.5t18.5 2.5l172 831h-203zM438 1024h203l45 205q4 53 4 55 q0 33 -22 51t-56 19q-106 0 -139 -162zM940 1024h244l73 348q-74 33 -131 33q-106 0 -139 -162z" />
<glyph unicode="fix" horiz-adv-x="1814" d="M-412 -291q0 127 86 189q90 63 269 118l245 1170q20 98 76 176q53 76 123 108q72 35 131 50q57 14 121 14q416 0 416 -250q0 -66 -47 -108q-46 -43 -99 -43q-68 0 -104 24q-35 23 -35 86q0 43 18.5 74t42.5 31q14 0 19 -2q-2 70 -111 69q-92 0 -161 -67q-68 -66 -91 -156 l-34 -168h206l-16 -82h-207l-233 -1106q-74 -348 -373 -348q-96 0 -170 63q-72 62 -72 158zM-299 -262q0 -25 25 -45q27 -23 57 -23q37 0 70 37q31 35 51 123l24 119q-115 -39 -168 -84q-59 -49 -59 -127zM571 223q0 46 13 105l145 696h297l-147 -696q-10 -41 -11 -66 q0 -76 103 -76q83 0 264 160l-117 678h297l76 -446q162 168 168 301q-33 -4 -35 -5q-96 0 -96 115q0 51 39 76t100 25q55 0 84 -54q31 -55 31 -131q0 -154 -273 -438l27 -150q12 -70 35 -102q20 -29 86 -29q33 0 67 21q41 25 66 43l74 61q45 41 63 56h70q-2 -2 -6 -7.5 t-19.5 -20.5t-42.5 -44l-100 -102l-103 -89q-55 -47 -116 -77q-53 -27 -99 -27q-123 0 -170 45t-84 195q-117 -102 -233 -168q-125 -72 -199 -72q-254 0 -254 223z" />
<glyph unicode="fi&#x7a;" horiz-adv-x="1910" d="M-412 -291q0 127 86 189q90 63 269 118l245 1170q20 98 76 176q53 76 123 108q72 35 131 50q57 14 121 14q416 0 416 -250q0 -66 -47 -108q-46 -43 -99 -43q-68 0 -104 24q-35 23 -35 86q0 43 18.5 74t42.5 31q14 0 19 -2q-2 70 -111 69q-92 0 -161 -67q-68 -66 -91 -156 l-34 -168h206l-16 -82h-207l-233 -1106q-74 -348 -373 -348q-96 0 -170 63q-72 62 -72 158zM-299 -262q0 -25 25 -45q27 -23 57 -23q37 0 70 37q31 35 51 123l24 119q-115 -39 -168 -84q-59 -49 -59 -127zM569 225q0 47 13 103l147 696h293l-148 -696q-10 -45 -10 -70 q0 -76 74 -76q37 0 53 6q-29 -84 -67 -127q-41 -45 -70 -53q-27 -8 -76 -8q-106 0 -157 61q-52 60 -52 164zM1024 0l539 938q-127 4 -150 4q-113 0 -113 -45q15 0 25 -18q10 -20 10 -41q0 -123 -129 -123q-41 0 -69 35q-27 33 -27 84q0 84 61 137q63 53 179 53h551 l-539 -938q127 -4 149 -4q113 0 113 45q-12 0 -24.5 16.5t-12.5 40.5q0 125 131 125q41 0 70 -35q27 -33 27 -84q0 -84 -62 -137q-63 -53 -178 -53h-551z" />
<glyph unicode="flx" horiz-adv-x="1845" d="M-395 -291q0 125 88 189q92 66 266 118l246 1170q74 348 373 348q80 0 186 -23q88 -18 170 -47q41 -14 186 -71l-225 -1065q-10 -41 -10 -66q0 -76 102 -76q16 0 35 7q20 6 41 18q29 16 41 25q41 29 45 30q27 20 41 33l41 35l37 31l-144 659h297l95 -442q174 174 180 303 q-33 -4 -35 -4q-96 0 -96 114q0 49 39 74q43 27 100 27q59 0 86 -52q29 -53 29 -126q0 -147 -281 -441l35 -160q12 -52 18 -73q6 -20 33 -41q23 -16 70 -17q33 0 67 21q41 25 66 43l74 61q45 41 63 56h70q-2 -2 -6.5 -7.5t-19.5 -20.5l-42 -44l-100 -102l-103 -89 q-55 -47 -116 -77q-53 -27 -99 -27q-125 0 -172 47q-45 45 -86 211q-298 -258 -448 -258q-254 0 -254 223q0 46 12 105l221 1044q-74 33 -168 33q-106 0 -139 -162l-45 -219h190l-16 -82h-190l-234 -1106q-74 -348 -373 -348q-96 0 -170 63q-71 62 -71 158zM-283 -262 q0 -25 25 -45q27 -23 57 -23q37 0 72 37q33 37 49 123l25 119q-115 -39 -168 -84q-60 -49 -60 -127z" />
<glyph unicode="fl&#x7a;" horiz-adv-x="1923" d="M-395 -291q0 125 88 189q92 66 266 118l246 1170q74 348 373 348q80 0 186 -23q88 -18 170 -47q41 -14 186 -71l-227 -1065q-10 -45 -10 -70q0 -76 73 -76q35 0 54 6q-29 -84 -68 -127q-41 -45 -70 -53q-27 -8 -75 -8q-104 0 -156 61q-53 63 -53 164q0 47 12 103 l221 1044q-74 33 -168 33q-106 0 -139 -162l-45 -219h190l-16 -82h-190l-234 -1106q-74 -348 -373 -348q-96 0 -170 63q-71 62 -71 158zM-283 -262q0 -25 25 -45q27 -23 57 -23q37 0 72 37q33 37 49 123l25 119q-115 -39 -168 -84q-60 -49 -60 -127zM1044 0l539 938 q-127 4 -149 4q-113 0 -113 -45q15 0 25 -18q10 -20 10 -41q0 -123 -129 -123q-41 0 -70 35q-27 33 -27 84q0 84 62 137q63 53 178 53h551l-539 -938q127 -4 150 -4q113 0 113 45q-12 0 -24.5 16.5t-12.5 40.5q0 125 131 125q41 0 69 -35q27 -33 27 -84q0 -84 -61 -137 q-63 -53 -179 -53h-551z" />
<glyph unicode="ft" horiz-adv-x="1183" d="M-395 -291q0 125 88 189q92 66 266 118l246 1170q74 348 373 348q51 0 75 -2q14 -2 76 -14q14 -2 68 -17q20 -6 75 -24q51 -20 66 -25q4 -2 14.5 -5t27.5 -10t35.5 -13.5t36 -14.5l26.5 -12t14 -4l-78 -369h172l-19 -82h-170l-131 -614q-10 -41 -10 -66q0 -76 102 -76 q31 0 66 21q49 29 68 43q28 22 73 61l64 56h69l-69 -72q-92 -96 -99 -102l-102 -89q-59 -49 -115 -77q-53 -27 -100 -27q-254 0 -254 223q0 46 12 105l131 614h-249l-234 -1106q-74 -348 -373 -348q-96 0 -170 63q-71 62 -71 158zM-283 -262q0 -25 25 -45q27 -23 57 -23 q37 0 72 37q33 37 49 123l25 119q-115 -39 -168 -84q-60 -49 -60 -127zM469 1024h250l74 348q-74 33 -140 33q-106 0 -139 -162z" />
<glyph unicode="fu" horiz-adv-x="1644" d="M-414 -291q0 127 86 189q90 63 269 118l245 1170q74 348 373 348q100 0 170 -61q72 -61 72 -160q0 -47 -6 -84h-97q4 53 4 55q0 33 -22 51q-20 18 -55 19q-102 0 -140 -162l-36 -168h563l-150 -696q-10 -41 -10 -66q0 -76 102 -76q55 0 148 74q0 23 10 68l148 696h296 l-149 -696q-10 -41 -10 -66q0 -76 102 -76q33 0 68 21q41 25 65 43l74 61q45 41 63 56h70q-2 -2 -6 -7.5t-19.5 -20.5t-41.5 -44q-61 -66 -103 -102q-37 -35 -100 -89q-55 -47 -117 -77q-53 -27 -98 -27q-224 0 -252 172q-184 -172 -293 -172q-254 0 -254 223q0 46 12 105 l121 590h-260l-227 -1082q-74 -348 -373 -348q-96 0 -170 63q-72 62 -72 158zM-301 -262q0 -25 25 -45q27 -23 57 -23q35 0 69 37q31 35 52 123l24 119q-115 -39 -168 -84q-59 -49 -59 -127z" />
<glyph unicode="fx" horiz-adv-x="1318" d="M-422 -291q0 127 86 189q90 63 268 118l246 1170q74 348 373 348q100 0 170 -61q72 -61 72 -160q0 -47 -7 -84h-96q4 53 4 55q0 33 -22 51t-56 19q-102 0 -139 -162l-47 -215h461l96 -422q178 175 184 307q-33 -4 -34 -4q-96 0 -97 115q0 49 39 74q43 27 101 26 q53 0 83.5 -49t30.5 -123q0 -157 -282 -448l30 -136q12 -52 19 -73q6 -20 33 -41q23 -16 69 -17q33 0 68 21q41 25 65 43l74 61l64 56h69l-69 -72q-78 -80 -101 -102q-37 -35 -100 -89q-55 -47 -117 -77q-53 -27 -98 -27q-129 0 -176 55q-46 55 -92 252q-182 -129 -207 -241 q6 2 26 2q84 0 84 -101q0 -113 -114 -112q-70 0 -107 39q-37 41 -37 106q0 170 330 416l-107 454h-208l-217 -1034q-74 -348 -373 -348q-96 0 -170 63q-72 62 -72 158zM-309 -262q0 -25 24 -45q27 -23 58 -23q39 0 71 37q29 31 50 123l24 119q-115 -39 -168 -84 q-59 -49 -59 -127z" />
<glyph unicode="f&#x7a;" horiz-adv-x="1343" d="M-414 -291q0 127 86 189q90 63 269 118l245 1170q74 348 373 348q100 0 170 -61q72 -61 72 -160q0 -47 -6 -84h-97q4 53 4 55q0 33 -22 51q-20 18 -55 19q-102 0 -140 -162l-34 -168h886l-538 -938q127 -4 149 -4q113 0 113 45q-12 0 -24.5 16.5t-12.5 40.5 q0 125 131 125q41 0 70 -35q27 -33 26 -84q0 -84 -61 -137q-63 -53 -178 -53h-551l526 918q-9 12 -104 12q-145 0 -146 -33q35 0 35 -74q0 -109 -129 -108q-41 0 -70 35q-27 33 -26 84q0 43 18 84h-135l-229 -1082q-74 -348 -373 -348q-96 0 -170 63q-72 62 -72 158z M-301 -262q0 -25 25 -45q27 -23 57 -23q35 0 69 37q31 35 52 123l24 119q-115 -39 -168 -84q-59 -49 -59 -127z" />
<glyph unicode="gp" horiz-adv-x="1931" d="M-51 270q0 98 14 187q18 113 49 200q35 100 92 183q53 78 146 131q88 51 205 51q109 0 163 -96l21 98h297l-203 -965l199 29l198 936h289l-10 -45q82 43 156 43q166 0 233 -66q70 -68 70 -229q0 -600 -451 -725q-86 -27 -219 -33l-86 -407l-307 -74l98 469q-8 0 -22.5 -1 t-36 -2t-37.5 -1t-37.5 -1t-37 -2t-23.5 -1l-23 -113q-72 -348 -373 -348q-238 0 -237 217q0 197 346 291l18 86q-113 -98 -237 -98q-131 0 -192.5 87.5t-61.5 198.5zM184 -262q0 -28 19 -55q18 -27 51 -27q39 0 78 45q40 46 55 129l16 80q-219 -53 -219 -172zM201 309 q0 -129 149 -129q55 0 125 74l121 565q-45 88 -119 88q-90 0 -157.5 -116.5t-92.5 -245.5q-26 -140 -26 -236zM1235 145q68 12 149 45q154 72 220 367q29 131 28 211q0 88 -30.5 121t-85.5 33q-63 0 -130 -52z" />
<glyph unicode="gx" horiz-adv-x="1746" d="M-51 248q0 98 14 190q18 113 49 205q35 102 92 188q51 76 146 136q90 55 205 55q109 0 163 -96l21 98h297l-199 -944q311 123 434 258l-149 686h297l102 -481q80 72 140 162q55 86 59 157q-33 -4 -35 -4q-96 0 -96 115q0 49 39 74q43 27 100 26q55 0 84 -53 q31 -55 31 -131q0 -154 -299 -453l26 -119q12 -52 19 -73q6 -20 33 -41q23 -16 69 -17q33 0 68 21q41 25 65 43l74 61l64 56h69l-69 -72q-78 -80 -101 -102q-37 -35 -100 -89q-55 -47 -117 -77q-53 -27 -98 -27q-119 0 -166 41t-82 174q-113 -127 -485 -252l-27 -127 q-74 -348 -373 -348q-80 0 -149 53q-68 53 -68 131q0 94 82 158q84 66 236 129l24 113q-109 -84 -235 -84q-137 0 -195 75q-59 79 -59 185zM195 -295q0 -61 71 -61q33 0 68 51t53 135l4 25q-196 -76 -196 -150zM201 287q0 -129 149 -129q53 0 121 67l125 594q-45 88 -119 88 q-72 0 -127 -71.5t-86 -173.5q-33 -113 -47 -203q-16 -104 -16 -172z" />
<glyph unicode="g&#x7a;" horiz-adv-x="1783" d="M-51 248q0 98 14 190q18 113 49 205q35 102 92 188q51 76 146 136q90 55 205 55q109 0 163 -96l21 98h297l-250 -1188q-74 -348 -373 -348q-96 0 -170 63q-72 61 -71 158q0 49 20 94q18 39 43 64q23 23 78 45q39 16 90 29q14 4 53 11t58 11l24 111q-106 -86 -235 -86 q-137 0 -195 75q-59 79 -59 185zM184 -262q0 -25 25 -45q27 -23 57 -23q86 0 121 160l14 68q-117 -23 -165 -52q-52 -30 -52 -108zM201 287q0 -129 149 -129q51 0 119 67l127 594q-45 88 -119 88q-72 0 -127 -71.5t-86 -173.5q-33 -113 -47 -203q-16 -104 -16 -172zM838 0 l616 938q-127 4 -149 4q-113 0 -113 -45q15 0 25 -18q10 -20 10 -41q0 -123 -129 -123q-41 0 -70 35q-27 33 -27 84q0 84 62 137q63 53 178 53h551l-616 -938q127 -4 165 -4q139 0 140 45q-12 0 -24.5 16.5t-12.5 40.5q0 125 131 125q41 0 70 -35q27 -33 26 -84 q0 -84 -61 -137q-63 -53 -178 -53h-594z" />
<glyph unicode="is" horiz-adv-x="1280" d="M-12 223q0 46 12 105l145 696h297l-147 -696q-16 -76 -16 -103q0 -59 53 -59q49 0 110 96q0 121 45 193q47 76 111 77q86 156 156 472l297 61v-29q0 -182 69.5 -376.5t69.5 -303.5l-2 -43q72 61 133 133l53 -69l-221 -187q-88 -190 -360 -190q-145 0 -229.5 37 t-108.5 125q-119 -162 -213 -162q-254 0 -254 223zM180 1294q0 63 47 115q47 49 115 49t117 -49q47 -47 47 -115q0 -70 -47 -114q-51 -47 -117 -47q-68 0 -115 46.5t-47 114.5zM547 293q0 -172 174 -172q59 0 114.5 67.5t55.5 176.5q0 45 -47 198q-47 152 -49 293 q0 -2 -5.5 -18.5t-14.5 -50t-21 -72.5q-43 -143 -66 -193q68 -23 68 -114q0 -57 -39 -95q-41 -37 -96 -37q-43 1 -74 17z" />
<glyph unicode="isx" horiz-adv-x="1961" d="M-12 223q0 46 12 105l145 696h297l-147 -696q-16 -76 -16 -101q0 -61 53 -61t117 106q0 117 45 187q46 71 110 73q86 156 156 472l297 61v-29q0 -168 69 -381q68 -205 68 -342q72 61 133 133l6 -10l-143 588h297l104 -420q203 168 209 305q-33 -4 -35 -4q-96 0 -96 115 q0 49 39 74q43 27 100.5 26.5t86 -47.5t28.5 -123q0 -141 -305 -446l47 -187q14 -57 21 -73q8 -20 36 -41q23 -16 70 -17q31 0 66 21q49 29 67 43l74 61q45 41 63 56h70q-2 -2 -6 -7.5t-19.5 -20.5t-42.5 -44q-61 -66 -102 -102q-37 -35 -100 -89q-59 -49 -115 -77 q-53 -27 -100 -27q-137 0 -191 59q-51 57 -92 258l-10 39l-195 -166q-90 -190 -360 -190q-150 0 -230 39q-84 41 -108 129q-131 -168 -219 -168q-254 0 -254 223zM180 1294q0 63 47 115q47 49 115 49t117 -49q47 -47 47 -115q0 -70 -47 -114q-51 -47 -117 -47 q-68 0 -115 46.5t-47 114.5zM553 295q0 -174 174 -174q59 0 114.5 67.5t55.5 176.5q0 45 -47 198q-47 152 -49 293q0 -2 -5 -18.5l-14.5 -50l-21.5 -72.5q-43 -143 -66 -193q68 -23 68 -114q0 -57 -39 -94.5t-96 -37.5q-37 1 -74 19z" />
<glyph unicode="is&#x7a;" horiz-adv-x="2025" d="M-33 223q0 46 13 105l145 696h297l-148 -696q-16 -76 -16 -103q0 -59 49 -59q47 0 113 96q0 123 45 193q47 74 110 75q74 139 146 469l297 62v-29q0 -135 39 -262q35 -115 73 -217q37 -98 37 -197q0 -156 -100 -256t-297 -100q-144 0 -227 37q-80 35 -109 123 q-127 -160 -213 -160q-254 0 -254 223zM160 1294q0 63 47 115q47 49 115 49q66 0 114.5 -49t48.5 -115q0 -70 -49 -114q-51 -47 -114 -47q-68 0 -115 46.5t-47 114.5zM522 260q0 -59 56 -100q53 -39 120 -39q59 0 114.5 67.5t55.5 176.5q0 45 -47 198q-47 152 -49 293 q0 -2 -5 -18.5l-14.5 -50l-21.5 -72.5q-35 -117 -65 -193q68 -23 67 -114q-4 -59 -41 -95q-41 -37 -94 -37q-37 0 -72 17q-4 -29 -4 -33zM1124 0l539 938q-127 4 -150 4q-113 0 -112 -45q15 0 24 -18q10 -20 11 -41q0 -123 -129 -123q-41 0 -70 35q-27 33 -27 84 q0 84 62 137q63 53 178 53h551l-539 -938q127 -4 150 -4q113 0 112 45q-12 0 -24 16.5t-12 40.5q0 125 131 125q41 0 69 -35q27 -33 27 -84q0 -84 -62 -137q-63 -53 -178 -53h-551z" />
<glyph unicode="ix" horiz-adv-x="1249" d="M-12 225q0 47 12 103l145 696h297l-147 -696q-12 -55 -12 -90q0 -76 47 -76q123 0 348 182l-148 680h297l95 -444q199 225 223 364q-33 -4 -35 -4q-96 0 -96 115q0 51 41 75q40 25 98 25q46 0 74 -43q29 -45 28 -117q0 -170 -311 -516l35 -162q2 -12 20 -73q6 -23 31 -41 q23 -16 70 -17q33 0 67 21q41 25 66 43l74 61q45 41 63 56h70q-2 -2 -6 -7.5t-19.5 -20.5t-42.5 -44l-100 -102l-103 -89q-55 -47 -116 -77q-53 -27 -99 -27q-123 0 -170 45t-84 195q-283 -240 -452 -240q-260 0 -260 225zM180 1294q0 63 47 115q47 49 115 49t117 -49 q47 -47 47 -115q0 -70 -47 -114q-51 -47 -117 -47q-68 0 -115 46.5t-47 114.5z" />
<glyph unicode="i&#x7a;" horiz-adv-x="1325" d="M-41 225q0 47 12 103l148 696h293l-148 -696q-10 -45 -10 -70q0 -76 74 -76q37 0 53 6q-29 -84 -68 -127q-41 -45 -69 -53q-27 -8 -76 -8q-102 0 -156 61q-53 64 -53 164zM145 1294q0 63 48 115q45 49 114 49q68 0 117 -49q47 -47 47 -115q0 -70 -47 -114 q-51 -47 -117 -47q-68 0 -115 46.5t-47 114.5zM399 0l539 938q-127 4 -150 4q-113 0 -112 -45q15 0 24 -18q10 -20 11 -41q0 -123 -129 -123q-41 0 -70 35q-27 33 -27 84q0 84 62 137q63 53 178 53h551l-539 -938q127 -4 150 -4q113 0 112 45q-12 0 -24 16.5t-12 40.5 q0 125 131 125q41 0 69 -35q27 -33 27 -84q0 -84 -62 -137q-63 -53 -178 -53h-551z" />
<glyph unicode="&#xed;s" horiz-adv-x="1280" d="M-12 223q0 46 12 105l145 696h297l-147 -696q-6 -29 -12.5 -57.5t-8.5 -40t-2 -13.5q0 -51 56 -51q51 0 114 100q0 121 45 191q47 74 111 75q86 156 156 472l297 61v-29q0 -182 69.5 -376.5t69.5 -303.5l-2 -43q72 61 133 133l53 -69l-221 -187q-88 -190 -360 -190 q-145 0 -229.5 37t-108.5 125q-119 -162 -213 -162q-254 0 -254 223zM231 1149l187 387h215l-248 -387h-154zM547 293q0 -172 174 -172q59 0 114.5 67.5t55.5 176.5q0 45 -47 198q-47 152 -49 293q0 -2 -5.5 -18.5t-14.5 -50t-21 -72.5q-43 -143 -66 -193q68 -23 68 -114 q0 -57 -39 -95q-41 -37 -96 -37q-43 1 -74 17z" />
<glyph unicode="&#xed;sx" horiz-adv-x="1961" d="M-12 223q0 46 12 105l145 696h297l-147 -696q-6 -29 -12.5 -57.5t-8.5 -40t-2 -13.5q0 -51 56 -51q53 0 121 110q4 115 47 183q47 72 108 73q86 156 156 472l297 61v-29q0 -141 35 -264q18 -68 69 -219q35 -104 35 -197q0 -33 -2 -43q72 61 133 133l-137 578h297 l104 -420q203 168 209 305q-33 -4 -35 -4q-96 0 -96 115q0 49 39 74q43 27 100 26q55 0 84 -53q31 -55 31 -131q0 -143 -305 -432l47 -187q14 -57 21 -73q8 -20 36 -41q23 -16 70 -17q31 0 66 21q49 29 67 43l74 61q45 41 63 56h70q-2 -2 -6 -7.5t-19.5 -20.5t-42.5 -44 q-61 -66 -102 -102q-37 -35 -100 -89q-59 -49 -115 -77q-53 -27 -100 -27q-137 0 -191 59q-51 57 -92 258l-10 39l-195 -166q-90 -190 -360 -190q-150 0 -230 39q-84 41 -108 129q-131 -168 -219 -168q-254 0 -254 223zM236 1149l186 387h215l-248 -387h-153zM553 295 q0 -174 174 -174q59 0 114.5 67.5t55.5 176.5q0 45 -47 198q-47 152 -49 293q0 -2 -5 -18.5l-14.5 -50l-21.5 -72.5q-43 -143 -66 -193q68 -23 68 -114q0 -57 -39 -94.5t-96 -37.5q-37 1 -74 19z" />
<glyph unicode="&#xed;s&#x7a;" horiz-adv-x="2023" d="M-41 223q0 46 12 105l146 696h297l-148 -696q-20 -94 -20 -111q0 -51 53 -51q47 0 113 96q0 123 45 193q47 74 110 75q74 139 146 469l297 62v-29q0 -143 37 -262q27 -84 75 -217q37 -98 37 -197q0 -156 -100.5 -256t-296.5 -100q-144 0 -227 37q-80 35 -109 123 q-127 -160 -213 -160q-254 0 -254 223zM207 1149l186 387h215l-248 -387h-153zM514 260q0 -59 55 -100q53 -39 121 -39q59 0 114.5 67.5t55.5 176.5q0 45 -47 198q-47 152 -49 293q0 -2 -5 -18.5l-14.5 -50l-21.5 -72.5q-43 -143 -66 -193q68 -23 68 -114q-4 -59 -41 -95 q-41 -37 -94 -37q-37 0 -72 17q-4 -29 -4 -33zM1116 0l539 938q-127 4 -150 4q-113 0 -112 -45q15 0 24 -18q10 -20 10 -41q0 -123 -129 -123q-41 0 -69 35q-27 33 -27 84q0 84 62 137q63 53 178 53h551l-539 -938q127 -4 150 -4q113 0 112 45q-14 0 -26 16q-10 12 -11 41 q0 125 131 125q41 0 70 -35q27 -33 27 -84q0 -84 -62 -137q-63 -53 -178 -53h-551z" />
<glyph unicode="&#xed;x" horiz-adv-x="1249" d="M-12 225q0 47 12 103l145 696h297l-147 -696q-10 -41 -10 -82q0 -84 45 -84q123 0 348 182l-148 680h297l95 -444q199 225 223 364q-33 -4 -35 -4q-96 0 -96 115q0 51 41 75q40 25 98 25q39 0 70 -37q33 -39 32 -106q0 -184 -311 -533l35 -162q2 -12 20 -73q6 -23 31 -41 q23 -16 70 -17q33 0 67 21q41 25 66 43l74 61q45 41 63 56h70q-2 -2 -6 -7.5t-19.5 -20.5t-42.5 -44l-100 -102l-103 -89q-55 -47 -116 -77q-53 -27 -99 -27q-123 0 -170 45t-84 195q-283 -240 -452 -240q-260 0 -260 225zM250 1149l186 387h215l-248 -387h-153z" />
<glyph unicode="&#xed;&#x7a;" horiz-adv-x="1333" d="M-35 225q0 47 12 103l148 696h293l-148 -696q-10 -45 -10 -70q0 -76 74 -76q39 0 53 6q-29 -84 -68 -127q-41 -45 -69 -53q-27 -8 -76 -8q-104 0 -156 61q-53 64 -53 164zM207 1149l186 387h215l-248 -387h-153zM414 0l538 938q-127 4 -149 4q-113 0 -113 -45 q15 0 25 -18q10 -20 10 -41q0 -123 -129 -123q-41 0 -70 35q-27 33 -26 84q0 84 61 137q63 53 178 53h551l-538 -938q127 -4 149 -4q113 0 113 45q-12 0 -24.5 16.5t-12.5 40.5q0 125 131 125q41 0 70 -35q27 -33 26 -84q0 -84 -61 -137q-63 -53 -178 -53h-551z" />
<glyph unicode="jx" horiz-adv-x="1230" d="M-457 -291q0 113 90 178q88 63 263 117l215 1020h297l-197 -930q315 98 444 244l-149 686h297l102 -481q80 72 139 162q55 86 60 157q-37 -4 -39 -4q-92 0 -92 115q0 49 39 74q43 27 100 26q55 0 84 -53q31 -55 31 -131q0 -154 -299 -453l26 -119q12 -52 19 -73 q6 -20 33 -41q23 -16 69 -17q33 0 68 21q41 25 65 43l74 61l64 56h69l-69 -72q-78 -80 -101 -102q-37 -35 -100 -89q-55 -47 -117 -77q-53 -27 -98 -27q-113 0 -164 41t-84 172q-41 -45 -129 -82q-76 -33 -158 -57q-45 -14 -198 -51l-39 -187q-74 -348 -373 -348 q-96 0 -170 63q-72 62 -72 158zM-344 -262q0 -25 25 -45q27 -23 57 -23q86 0 121 160l24 111q-227 -80 -227 -203zM143 1298q0 63 47 115q47 49 115 49t117 -49q47 -47 47 -115q0 -70 -47 -114q-51 -47 -117 -47q-68 0 -115 46.5t-47 114.5z" />
<glyph unicode="j&#x7a;" horiz-adv-x="1290" d="M-422 -291q0 129 88 191q98 68 268 116l211 1008h297l-249 -1188q-74 -348 -373 -348q-96 0 -170 63q-72 62 -72 158zM-309 -262q0 -25 24 -45q27 -23 58 -23q88 0 121 160l26 121q-109 -37 -170 -86q-59 -47 -59 -127zM178 1298q0 63 47 115q45 49 115 49q68 0 117 -49 q47 -47 47 -115q0 -70 -47 -114q-51 -47 -117 -47q-68 0 -115 46.5t-47 114.5zM389 0l539 938q-127 4 -150 4q-113 0 -112 -45q15 0 24 -18q10 -20 10 -41q0 -123 -129 -123q-41 0 -69 35q-27 33 -27 84q0 84 62 137q63 53 178 53h551l-539 -938q127 -4 150 -4q113 0 112 45 q-14 0 -26 16q-10 12 -11 41q0 125 131 125q41 0 70 -35q27 -33 27 -84q0 -84 -62 -137q-63 -53 -178 -53h-551z" />
<glyph unicode="lx" horiz-adv-x="1331" d="M-12 223q0 46 12 105l227 1065l303 41l-235 -1106q-10 -41 -10 -66q0 -76 102 -76q90 0 332 174l-144 664h297l95 -442q174 174 180 303q-33 -4 -35 -4q-96 0 -96 114q0 49 39 74q43 27 100 27t86 -51.5t29 -124.5q0 -150 -281 -443l35 -160q2 -12 20 -73q6 -23 31 -41 q23 -16 70 -17q33 0 67 21q41 25 66 43l74 61q45 41 63 56h70q-2 -2 -6 -7.5t-19.5 -20.5t-42.5 -44l-100 -102l-103 -89q-55 -47 -116 -77q-53 -27 -99 -27q-125 0 -172 47q-46 46 -86 209q-330 -256 -499 -256q-254 0 -254 223z" />
<glyph unicode="l&#x7a;" horiz-adv-x="1284" d="M-10 225q0 47 12 103l225 1065l303 41l-235 -1106q-10 -45 -10 -70q0 -76 73 -76q35 0 54 6q-29 -84 -68 -127q-41 -45 -70 -53q-27 -8 -75 -8q-104 0 -156 61q-53 64 -53 164zM424 0l539 938q-127 4 -150 4q-113 0 -113 -45q15 0 25 -18q10 -20 10 -41q0 -123 -129 -123 q-41 0 -69 35q-27 33 -27 84q0 84 61 137q63 53 179 53h550l-538 -938q127 -4 149 -4q113 0 113 45q-12 0 -24.5 16.5t-12.5 40.5q0 125 131 125q41 0 70 -35q27 -33 26 -84q0 -84 -61 -137q-63 -53 -178 -53h-551z" />
<glyph unicode="mx" horiz-adv-x="2269" d="M-88 0l217 1024h295l-23 -109q152 109 265 109q55 0 112 -39q55 -37 90 -96q168 135 299 135q86 0 160 -78q76 -80 76 -178q0 -29 -4 -49l-84 -391q-10 -45 -10 -76q0 -84 84 -84q78 0 270 156l-152 700h297l109 -510q88 76 158 174q68 96 71 174q-33 -4 -35 -4 q-96 0 -96 115q0 49 39 74q43 27 100 26q55 0 84 -53q31 -55 31 -131q0 -158 -328 -483l19 -89q16 -78 35 -102q23 -29 86 -29q33 0 67 21q41 25 66 43l74 61q45 41 63 56h70q-2 -2 -6.5 -7.5t-19.5 -20.5l-42 -44l-100 -102l-103 -89q-55 -47 -116 -77q-53 -27 -99 -27 q-119 0 -168 43q-47 41 -82 184q-281 -227 -419 -227q-254 0 -254 223q0 46 12 105l78 368q6 29 6 54q0 55 -26.5 87.5t-67.5 32.5q-57 0 -119 -36q10 -45 10 -72q0 -6 -4 -43l-152 -719h-296l147 696q6 29 6 54q0 55 -26.5 87.5t-67.5 32.5q-63 0 -125 -43l-176 -827h-295z " />
<glyph unicode="m&#x7a;" horiz-adv-x="2320" d="M-88 0l217 1024h295l-23 -109q152 109 265 109q55 0 110 -37q57 -39 90 -94q174 131 297 131q86 0 160 -78q76 -80 76 -180q0 -2 -4 -47q0 -4 -52 -238q-47 -217 -47 -235q0 -63 76 -64q37 0 53 6q-29 -84 -67 -127q-41 -45 -70 -53q-27 -8 -76 -8q-209 0 -208 223 q0 46 12 105l78 368q6 29 6 54q0 55 -26.5 87.5t-67.5 32.5q-55 0 -115 -34q10 -45 10 -74q0 -6 -4 -43l-152 -719h-296l147 696q6 29 6 54q0 55 -26.5 87.5t-67.5 32.5q-63 0 -125 -43l-176 -827h-295zM1427 0l539 938q-127 4 -149 4q-113 0 -113 -45q15 0 25 -18 q10 -20 10 -41q0 -123 -129 -123q-41 0 -70 35q-27 33 -27 84q0 84 62 137q63 53 178 53h551l-539 -938q127 -4 150 -4q113 0 113 45q-12 0 -24.5 16.5t-12.5 40.5q0 125 131 125q41 0 69 -35q27 -33 27 -84q0 -84 -61 -137q-63 -53 -179 -53h-551z" />
<glyph unicode="n&#x7a;" horiz-adv-x="1783" d="M-74 0l217 1024h295l-24 -111q152 111 268 111q88 0 162 -78t74 -180q0 -25 -5 -47q0 -4 -51 -238q-47 -217 -47 -235q0 -63 76 -64q39 0 53 6q-29 -84 -67 -127q-41 -45 -70 -53q-27 -8 -76 -8q-209 0 -209 223q0 46 13 105l77 368q6 29 6 54q0 55 -26.5 87.5 t-67.5 32.5q-65 0 -129 -43l-174 -827h-295zM915 0l539 938q-127 4 -149 4q-113 0 -113 -45q15 0 25 -18q10 -20 10 -41q0 -123 -129 -123q-41 0 -70 35q-27 33 -27 84q0 84 62 137q63 53 178 53h551l-539 -938q127 -4 150 -4q113 0 113 45q-12 0 -24.5 16.5t-12.5 40.5 q0 125 131 125q41 0 69 -35q27 -33 27 -84q0 -84 -61 -137q-63 -53 -179 -53h-551z" />
<glyph unicode="os" horiz-adv-x="1560" d="M-14 324q0 354 155 538q154 182 383 182q238 0 248 -296q14 -8 39 -9q46 0 86 19q43 20 74 53q39 43 55 66l51 81l17.5 27.5l15.5 26t10 16.5l223 45q0 -162 33 -285q25 -94 70 -227q33 -98 33 -201q0 -23 -2 -28q84 74 114 114l54 -69l-199 -168q-47 -98 -143 -152 q-102 -57 -240 -57q-274 0 -275 279q0 96 68 157.5t158 61.5q96 0 96 -146q0 -43 -45 -82t-94 -39q-59 0 -86 52q-6 -20 -6 -39q0 -92 155 -92q92 0 133 47t41 168q0 43 -34 200q-35 154 -37 289q-37 -37 -80 -88t-72 -76l-57 -49q-39 -33 -76 -45q-18 -6 -88 -23 q-35 -285 -166 -434q-135 -154 -299 -153q-166 0 -240 78q-73 77 -73 258zM258 342q0 -88 35 -121q39 -35 102 -35q59 0 106.5 59.5t73.5 143.5q27 82 39 193q-45 0 -65.5 26.5t-20.5 65.5q0 45 25 88q23 39 65 55q-8 106 -86 107q-70 0 -122 -66q-59 -74 -88 -164 q-33 -104 -48 -190q-16 -99 -16 -162z" />
<glyph unicode="osx" horiz-adv-x="2238" d="M-14 324q0 354 155 538q154 182 383 182q238 0 248 -296q14 -8 39 -9q46 0 86 19q43 20 74 53q39 43 55 66l51 81l17.5 27.5l15.5 26t10 16.5l223 45q0 -162 33 -285q25 -94 70 -227q33 -98 33 -201q0 -53 -9 -79q131 98 189 155l-143 588h296l105 -420q203 168 209 305 l-37 -4q-94 0 -94 115q0 49 39 74q43 27 100 26q55 0 84 -53q31 -55 31 -131q0 -143 -305 -432l47 -187q14 -57 20 -73q8 -20 37 -41q23 -16 70 -17q33 0 67 21q41 25 66 43q28 22 73 61q45 41 64 56h70q-2 -2 -6.5 -7.5t-19.5 -20.5l-42 -44l-100 -102l-103 -89 q-55 -47 -116 -77q-53 -27 -99 -27q-137 0 -190 59q-51 57 -92 258l-9 33q-63 -37 -147 -108l-133 -115q-53 -47 -144 -88q-86 -39 -194 -39q-274 0 -275 279q0 96 68 157.5t158 61.5q96 0 96 -146q0 -43 -45 -82t-94 -39q-59 0 -86 52q-8 -25 -8 -45q0 -51 38.5 -84 t114.5 -33q178 0 178 246q0 43 -34 200q-35 154 -37 289q-37 -37 -80 -88t-72 -76l-57 -49q-39 -33 -76 -45q-18 -6 -88 -23q-35 -285 -166 -434q-135 -154 -299 -153q-166 0 -240 78q-73 77 -73 258zM258 342q0 -88 35 -121q39 -35 102 -35q59 0 106.5 59.5t73.5 143.5 q27 82 39 193q-45 0 -65.5 26.5t-20.5 65.5q0 45 25 88q23 39 65 55q-8 106 -86 107q-70 0 -122 -66q-59 -74 -88 -164q-33 -104 -48 -190q-16 -99 -16 -162z" />
<glyph unicode="os&#x7a;" horiz-adv-x="2334" d="M-14 324q0 354 155 538q154 182 383 182q238 0 248 -296q14 -8 39 -9q46 0 86 19q43 20 74 53q39 43 55 66l51 81l17.5 27.5l15.5 26t10 16.5l223 45q0 -162 33 -285q25 -94 70 -227q33 -98 33 -201q0 -152 -109 -256q-108 -104 -307 -104q-274 0 -275 279q0 96 68 157.5 t158 61.5q96 0 96 -146q0 -43 -45 -82t-94 -39q-59 0 -86 52q-6 -22 -6 -43q0 -47 38.5 -80t114.5 -33q176 0 176 240q0 43 -34 200q-35 154 -37 289q-37 -37 -80 -88t-72 -76l-57 -49q-39 -33 -76 -45q-18 -6 -88 -23q-35 -285 -166 -434q-135 -154 -299 -153 q-166 0 -240 78q-73 77 -73 258zM258 342q0 -88 35 -121q39 -35 102 -35q59 0 106.5 59.5t73.5 143.5q27 82 39 193q-45 0 -65.5 26.5t-20.5 65.5q0 45 25 88q23 39 65 55q-8 106 -86 107q-70 0 -122 -66q-59 -74 -88 -164q-33 -104 -48 -190q-16 -99 -16 -162zM1446 0 l539 938q-127 4 -150 4q-113 0 -113 -45q15 0 25 -18q10 -20 10 -41q0 -123 -129 -123q-41 0 -69 35q-27 33 -27 84q0 84 61 137q63 53 179 53h550l-538 -938q127 -4 149 -4q113 0 113 45q-12 0 -24.5 16.5t-12.5 40.5q0 125 131 125q41 0 70 -35q27 -33 26 -84 q0 -84 -61 -137q-63 -53 -178 -53h-551z" />
<glyph unicode="ox" horiz-adv-x="1646" d="M-14 324q0 354 155 538q154 182 383 182q230 0 246 -276q37 0 70 18q37 20 49 33q27 27 45 47l-35 158h297l98 -463q84 72 152 166q61 86 65 164q-33 -4 -34 -4q-96 0 -97 114q0 49 39 74q43 27 101 27q51 0 84 -51q31 -49 30 -121q0 -100 -112 -252q-117 -158 -207 -213 l33 -148q12 -52 18 -73q6 -20 33 -41q23 -16 69 -17q33 0 68 21q41 25 66 43q28 22 73 61l64 56h69l-69 -72q-78 -80 -101 -102q-37 -35 -100 -89q-59 -49 -115 -77q-53 -27 -100 -27q-133 0 -180 57q-47 55 -90 260q-80 -45 -148 -114q-61 -63 -61 -125q6 2 26 2 q84 0 84 -100q0 -113 -114 -113q-135 0 -135 145q0 94 102 215q98 117 223 195l-80 369q-76 -94 -182 -152q-18 -305 -158 -479q-139 -172 -311 -172q-166 0 -240 78q-73 77 -73 258zM258 342q0 -88 35 -121q39 -35 102 -35q86 0 142 113q57 117 77 281h-14 q-43 0 -63.5 32.5t-20.5 79.5q0 46 25 86q27 41 69 51q-2 94 -78 95q-70 0 -122 -66q-59 -74 -88 -164q-33 -104 -48 -190q-16 -99 -16 -162z" />
<glyph unicode="&#xf3;s" horiz-adv-x="1572" d="M-14 324q0 354 155 538q154 182 383 182q238 0 248 -296q14 -8 39 -9q46 0 86 19q43 20 74 53q39 43 55 66l51 81l17.5 27.5l15.5 26t10 16.5l223 45q0 -162 33 -285q25 -94 70 -227q33 -98 33 -201q0 -23 -2 -28q84 74 114 114l54 -69l-199 -168q-47 -98 -143 -152 q-102 -57 -240 -57q-274 0 -275 279q0 96 68 157.5t158 61.5q96 0 96 -146q0 -43 -45 -82t-94 -39q-59 0 -86 52q0 -80 30.5 -117t120.5 -37q84 0 129 57q43 55 43 181q0 43 -34 200q-35 154 -37 289q-37 -37 -80 -88t-72 -76l-57 -49q-39 -33 -76 -45q-18 -6 -88 -23 q-35 -285 -166 -434q-135 -154 -299 -153q-166 0 -240 78q-73 77 -73 258zM258 342q0 -88 35 -121q39 -35 102 -35q59 0 106.5 59.5t73.5 143.5q27 82 39 193q-45 0 -65.5 26.5t-20.5 65.5q0 45 25 88q23 39 65 55q-8 106 -86 107q-70 0 -122 -66q-59 -74 -88 -164 q-33 -104 -48 -190q-16 -99 -16 -162zM479 1149l187 387h215l-248 -387h-154z" />
<glyph unicode="&#xf3;sx" horiz-adv-x="2238" d="M-14 324q0 354 155 538q154 182 383 182q238 0 248 -296q14 -8 39 -9q46 0 86 19q43 20 74 53q39 43 55 66l51 81l17.5 27.5l15.5 26t10 16.5l223 45q0 -162 33 -285q25 -94 70 -227q33 -98 33 -201q0 -53 -9 -79q131 98 189 155l-143 588h296l111 -440q197 184 203 325 q-33 -4 -35 -4q-96 0 -96 115q0 49 41 74q43 27 98 26q51 0 84 -51q31 -49 31 -121q0 -160 -301 -467l43 -164q8 -39 16 -57q2 -4 21 -37q14 -25 34 -30q22 -6 56 -7q33 0 67 21q41 25 66 43q28 22 73 61q45 41 64 56h70q-2 -2 -6.5 -7.5t-19.5 -20.5l-42 -44l-100 -102 l-103 -89q-55 -47 -116 -77q-53 -27 -99 -27q-137 0 -190 59q-51 57 -92 258l-9 33q-63 -37 -147 -108l-133 -115q-53 -47 -144 -88q-86 -39 -194 -39q-274 0 -275 279q0 96 68 157.5t158 61.5q96 0 96 -146q0 -43 -45 -82t-94 -39q-59 0 -86 52q-8 -18 -8 -45 q0 -51 38.5 -84t114.5 -33q178 0 178 246q0 43 -34 200q-35 154 -37 289q-37 -37 -80 -88t-72 -76l-57 -49q-39 -33 -76 -45q-18 -6 -88 -23q-35 -285 -166 -434q-135 -154 -299 -153q-166 0 -240 78q-73 77 -73 258zM258 342q0 -88 35 -121q39 -35 102 -35q59 0 106.5 59.5 t73.5 143.5q27 82 39 193q-45 0 -65.5 26.5t-20.5 65.5q0 45 25 88q23 39 65 55q-8 106 -86 107q-70 0 -122 -66q-59 -74 -88 -164q-33 -104 -48 -190q-16 -99 -16 -162zM465 1149l186 387h215l-248 -387h-153z" />
<glyph unicode="&#xf3;s&#x7a;" horiz-adv-x="2349" d="M-14 324q0 354 155 538q154 182 383 182q238 0 248 -296q14 -8 39 -9q46 0 86 19q43 20 74 53q39 43 55 66l51 81l17.5 27.5l15.5 26t10 16.5l223 45q0 -158 33 -280q23 -82 70 -230q33 -100 33 -203q0 -152 -109 -256q-108 -104 -307 -104q-152 0 -213.5 76t-61.5 217 q0 109 66 158q61 47 160 47q94 0 94 -148q0 -41 -45 -78q-47 -37 -96 -36q-53 0 -82 47q-8 -25 -8 -45q0 -109 155 -109q174 0 174 215q0 57 -32 209q-33 156 -37 303q-37 -37 -80 -88t-72 -76l-57 -49q-39 -33 -76 -45q-18 -6 -88 -23q-35 -285 -166 -434 q-135 -154 -299 -153q-166 0 -240 78q-73 77 -73 258zM258 342q0 -88 35 -121q39 -35 102 -35q59 0 106.5 59.5t73.5 143.5q27 82 39 193q-45 0 -65.5 26.5t-20.5 65.5q0 45 25 88q23 39 65 55q-8 106 -86 107q-70 0 -122 -66q-59 -74 -88 -164q-33 -104 -48 -190 q-16 -99 -16 -162zM483 1149l187 387h215l-248 -387h-154zM1446 0l539 938q-127 4 -150 4q-113 0 -113 -45q15 0 25 -18q10 -20 10 -41q0 -123 -129 -123q-41 0 -69 35q-27 33 -27 84q0 84 61 137q63 53 179 53h550l-538 -938q127 -4 149 -4q113 0 113 45q-12 0 -24.5 16.5 t-12.5 40.5q0 125 131 125q41 0 70 -35q27 -33 26 -84q0 -84 -61 -137q-63 -53 -178 -53h-551z" />
<glyph unicode="&#xf3;x" horiz-adv-x="1646" d="M-29 324q0 354 156 538q154 182 383 182q240 0 248 -301q18 -18 59 -18q59 0 135 51l-53 248h297l100 -469q82 72 150 170q61 88 65 166q-33 -4 -34 -4q-96 0 -97 114q0 49 39 74q43 27 101 27q51 0 84 -51q31 -49 30 -121q0 -166 -315 -481l29 -132q12 -52 18 -73 q6 -20 33 -41q23 -16 69 -17q33 0 68 21q41 25 66 43q28 22 73 61l64 56h69l-69 -72q-78 -80 -101 -102q-37 -35 -100 -89q-59 -49 -115 -77q-53 -27 -100 -27q-129 0 -178 55q-51 57 -90 246q-88 -61 -146 -125q-63 -70 -78 -129q6 2 27 2q84 0 84 -100q0 -113 -115 -113 q-70 0 -106.5 39t-36.5 107q0 176 348 428l-65 301q-98 -76 -215 -109q-29 -293 -164 -452q-137 -162 -303 -162t-240 78q-74 77 -74 258zM244 342q0 -88 35 -121q39 -35 102 -35q59 0 106.5 59.5t73.5 143.5q27 82 39 193q-45 0 -65.5 26.5t-20.5 65.5q0 45 25 88 q23 39 65 55q-8 106 -86 107q-70 0 -123 -66q-59 -74 -88 -164q-33 -104 -47 -190q-16 -99 -16 -162zM434 1149l187 387h215l-248 -387h-154z" />
<glyph unicode="rx" horiz-adv-x="1597" d="M-90 0l217 1024h295l-23 -102q133 102 242 102q68 0 107 -37q41 -37 40 -94q0 -61 -40 -109q-45 -51 -113 -51q-41 0 -60 21q-16 20 -20 47q-4 31 -10 45q-10 23 -29 22q-70 0 -141 -65l-170 -803h-295zM625 -39q0 104 112 223q111 117 258 224l-133 616h297l96 -453 q162 164 168 291q-33 -4 -34 -4q-96 0 -97 115q0 49 39 74q43 27 101 26q55 0 84 -53q31 -55 30 -131q0 -147 -268 -422l33 -150q12 -52 18 -73q6 -20 33 -41q23 -16 70 -17q33 0 67 21q41 25 66 43q28 22 73 61l64 56h70q-2 -2 -6.5 -7.5t-19.5 -20.5l-42 -44 q-61 -66 -102 -102q-37 -35 -101 -89q-59 -49 -115 -77q-53 -27 -100 -27q-129 0 -176 53t-90 242q-221 -143 -248 -268q6 2 29 2q82 0 82 -101q0 -113 -115 -112q-70 0 -106.5 38.5t-36.5 106.5z" />
<glyph unicode="r&#x7a;" horiz-adv-x="1452" d="M-70 0l217 1024h295l-26 -123q197 123 321 123h693l-539 -938q127 -4 149 -4q113 0 113 45q-12 0 -24.5 16.5t-12.5 40.5q0 125 131 125q41 0 70 -35q27 -33 26 -84q0 -84 -61 -137q-63 -53 -178 -53h-551l539 938q-127 4 -152 4q-39 0 -63 -4q8 -16 8 -45 q0 -57 -45 -108.5t-117 -51.5q-43 0 -61 21q-18 23 -17 47q4 27 -2 45q-6 23 -31 22q-94 0 -221 -84l-166 -784h-295z" />
<glyph unicode="sx" horiz-adv-x="1501" d="M-16 268q0 117 45 187q47 74 110 75q74 139 146 469l297 62v-29q0 -114 24 -215q25 -100 51 -160q16 -35 50 -143q25 -80 24 -158q0 -37 -10 -88q119 106 151 142l-151 614h297l104 -420q203 168 209 305q-25 -6 -41 -6q-45 0 -67.5 35t-22.5 82q0 49 39 74q43 27 100 26 q55 0 84 -53q31 -55 31 -131q0 -143 -305 -432l47 -187q14 -57 21 -73q8 -20 36 -41q23 -16 70 -17q31 0 66 21q49 29 67 43l74 61q45 41 63 56h70q-2 -2 -6 -7.5t-19.5 -20.5t-42.5 -44q-61 -66 -102 -102q-37 -35 -100 -89q-59 -49 -115 -77q-53 -27 -100 -27 q-133 0 -183 57q-51 59 -102 262l-100 -88q-70 -63 -109 -92q-61 -45 -98 -67q-65 -40 -123 -56q-61 -16 -129 -16q-182 0 -266 61.5t-84 206.5zM88 295q0 -174 174 -174q59 0 114.5 67.5t55.5 176.5q0 45 -47 198q-47 152 -49 293q0 -2 -5 -18.5l-14.5 -50l-21.5 -72.5 q-43 -143 -66 -193q68 -23 68 -114q-4 -59 -41 -95q-39 -37 -94 -37q-37 1 -74 19z" />
<glyph unicode="s&#x7a;" horiz-adv-x="1562" d="M-43 268q0 117 45 187q47 74 111 75q74 139 145 469l297 62v-29q0 -135 39 -262q35 -115 74 -217q37 -98 37 -197q0 -156 -100.5 -256t-297.5 -100q-184 0 -266 61q-84 62 -84 207zM61 295q0 -174 175 -174q59 0 114.5 67.5t55.5 176.5q0 45 -48 198q-47 152 -49 293 q0 -2 -5 -18.5t-14 -50t-22 -72.5q-35 -117 -65 -193q68 -23 67 -114q-4 -59 -41 -95q-41 -37 -94 -37q-37 1 -74 19zM676 0l538 938q-127 4 -149 4q-113 0 -113 -45q15 0 25 -18q10 -20 10 -41q0 -123 -129 -123q-41 0 -70 35q-27 33 -26 84q0 84 61 137q63 53 178 53h551 l-538 -938q127 -4 149 -4q113 0 113 45q-12 0 -24.5 16.5t-12.5 40.5q0 125 131 125q41 0 70 -35q27 -33 26 -84q0 -84 -61 -137q-63 -53 -178 -53h-551z" />
<glyph unicode="tx" horiz-adv-x="1335" d="M-10 223q0 46 12 105l145 696h-108v84h127l63 285l303 41l-69 -328h430l104 -498q166 169 172 295q-33 -4 -34 -4q-96 0 -97 115q0 49 39 73q43 27 101 27q55 0 84 -53q31 -55 30 -131q0 -145 -272 -426l39 -187q16 -78 35 -102q23 -29 86 -29q33 0 67 21q41 25 66 43 q28 22 73 61q45 41 64 56h70q-2 -2 -6.5 -7.5t-19.5 -20.5l-42 -44l-100 -102l-103 -89q-55 -47 -116 -77q-53 -27 -99 -27q-131 0 -176 51q-49 55 -88 234q-156 -119 -295 -199q-152 -86 -231 -86q-254 0 -254 223zM287 262q0 -76 102 -76q45 0 158 60q104 55 203 137 l-138 641h-166l-149 -696q-10 -41 -10 -66z" />
<glyph unicode="t&#x7a;" horiz-adv-x="1388" d="M-4 221q0 51 12 107l131 614h-67l16 82h68l61 283l303 41l-69 -324h122l-16 -82h-123l-131 -614q-10 -45 -10 -72q0 -74 72 -74q37 0 53 6q-29 -84 -68 -127q-41 -43 -74 -53q-27 -8 -75 -8q-101 0 -154 61q-51 60 -51 160zM477 0l539 938q-127 4 -150 4q-113 0 -112 -45 q15 0 24 -18q10 -20 10 -41q0 -123 -129 -123q-41 0 -69 35q-27 33 -27 84q0 84 62 137q63 53 178 53h551l-539 -938q127 -4 150 -4q113 0 112 45q-14 0 -26 16q-10 12 -11 41q0 125 131 125q41 0 70 -35q27 -33 27 -84q0 -84 -62 -137q-63 -53 -178 -53h-551z" />
<glyph unicode="uv" horiz-adv-x="1900" d="M-27 223q0 46 13 105l143 696h301l-149 -696l-11 -66q0 -76 103 -76q53 0 141 70l164 768h293l-217 -1024h-293l31 145q-170 -145 -265 -145q-254 0 -254 223zM987 223q0 46 12 105l121 585l-53 27l16 84h361l-150 -696q-12 -57 -12 -76q0 -66 78 -66q96 0 176 123 q82 125 121 277q41 158 41 272q-23 -8 -43 -8q-41 0 -63.5 35t-22.5 80q0 33 35 67q33 33 82 33q65 0 98 -49q33 -47 33 -135q0 -133 -33 -273q-35 -147 -98.5 -286.5t-180.5 -231.5q-115 -90 -264 -90q-254 0 -254 223z" />
<glyph unicode="yp" horiz-adv-x="1978" d="M-27 223q0 46 13 105l143 696h301l-149 -696q-10 -41 -11 -66q0 -76 103 -76q61 0 155 82l160 756h297l-199 -946q12 2 46 5l55 5q76 8 82 8l196 928h289l-10 -43q78 41 151 41q166 0 234 -66q70 -68 69 -229q0 -154 -34 -283q-33 -125 -80 -198q-47 -76 -113 -129 q-70 -57 -117 -78q-45 -20 -106 -37q-94 -25 -215 -33l-86 -407l-307 -74l100 479q-37 2 -178 2l-27 -133q-72 -348 -373 -348q-96 0 -169 63q-72 61 -72 158q0 233 356 320l29 129q-176 -158 -279 -158q-254 0 -254 223zM233 -262q0 -25 25 -45q27 -23 57 -23q37 0 70 37 q35 39 51 123l23 113q-226 -49 -226 -205zM1270 147q169 34 246 129q80 100 118 281q29 131 29 211q0 88 -30.5 121t-86 33t-125.5 -50z" />
<glyph unicode="yx" horiz-adv-x="1792" d="M-27 223q0 46 13 105l143 696h301l-149 -696q-10 -41 -11 -66q0 -76 103 -76q57 0 155 80l160 758h297l-190 -903q293 98 419 217l-149 686h297l102 -483q66 63 121 166q53 98 55 167q-33 -4 -34 -4q-96 0 -97 115q0 49 39 74q43 27 101 26q55 0 90 -55q33 -53 33 -129 q0 -86 -86 -229q-86 -144 -191 -271l18 -84q12 -52 19 -73q6 -20 33 -41q23 -16 69 -17q33 0 68 21q41 25 65 43l74 61l64 56h69l-69 -72q-78 -80 -101 -102q-37 -35 -100 -89q-55 -47 -117 -77q-53 -27 -98 -27q-117 0 -164 39q-45 37 -80 166q-113 -74 -467 -162l-43 -207 q-74 -348 -373 -348q-96 0 -169 63q-72 61 -72 158q0 114 92 185q88 68 262 126l29 138q-176 -158 -277 -158q-254 0 -254 223zM233 -262q0 -25 25 -45q27 -23 57 -23q37 0 70 37q35 39 51 123l25 119q-228 -88 -228 -211z" />
<glyph unicode="y&#x7a;" horiz-adv-x="1835" d="M-27 223q0 46 13 105l143 696h301l-149 -696q-10 -41 -11 -66q0 -76 103 -76q61 0 155 82l160 756h297l-250 -1188q-74 -348 -373 -348q-96 0 -169 63q-72 61 -72 158q0 129 88 191q98 68 266 116l31 142q-176 -158 -279 -158q-254 0 -254 223zM233 -262q0 -25 25 -45 q27 -23 57 -23q37 0 70 37q35 39 51 123l25 121q-228 -78 -228 -213zM870 0l617 938q-127 4 -150 4q-113 0 -112 -45q15 0 24 -18q10 -20 11 -41q0 -123 -130 -123q-41 0 -69 35q-27 33 -27 84q0 84 62 137q63 53 178 53h551l-617 -938q41 0 78 -2t88 -2q139 0 139 45 q-12 0 -24 16.5t-12 40.5q0 125 131 125q41 0 69 -35q27 -33 27 -84q0 -84 -62 -137q-63 -53 -178 -53h-594z" />
<glyph unicode=" "  horiz-adv-x="442" />
<glyph unicode="&#x09;" horiz-adv-x="442" />
<glyph unicode="&#xa0;" horiz-adv-x="442" />
<glyph unicode="!" horiz-adv-x="456" d="M2 163.5q0 69.5 47 115.5q51 47 117 47q68 0 115 -47.5t47 -114.5q0 -66 -47 -117q-45 -47 -115 -47t-117 47t-47 116.5zM133 473l146 961h294l-266 -961h-174z" />
<glyph unicode="&#x22;" horiz-adv-x="858" d="M127 1149l125 387h215l-186 -387h-154zM449 1149l124 387h215l-186 -387h-153z" />
<glyph unicode="#" horiz-adv-x="1347" d="M92 227l43 209h213l43 232h-209l43 209h203l107 593h180l-133 -593h215l106 593h180l-133 -593h213l-41 -209h-217l-51 -232h219l-41 -209h-225l-62 -282h-116l51 282h-242l-61 -282h-117l51 282h-219zM485 436h232l43 232h-223z" />
<glyph unicode="$" horiz-adv-x="823" d="M49 455q0 78 43 127t105 49q43 0 65.5 -14.5t22.5 -36.5q-82 -14 -82 -152q0 -84 86 -125l73 402l-59 47l-61 51q-12 10 -47 49q-27 29 -39 63q-10 29 -11 70q0 111 97 186q100 80 219 82l39 217h118l-51 -223q178 -27 178 -170q0 -74 -26.5 -114.5t-71.5 -40.5 q-39 0 -80 47q49 27 49 106q0 61 -65 90l-74 -329q51 -33 82 -56q18 -14 70 -61q43 -41 61 -88q18 -49 19 -109q0 -141 -101 -221q-100 -78 -268 -82l-59 -274h-56l49 276q-225 19 -225 234zM340 1024q0 -68 57 -125l49 277q-106 -21 -106 -152zM358 295q70 8 103 59.5 t33 124.5q0 84 -60 156z" />
<glyph unicode="%" horiz-adv-x="1316" d="M219 999q0 188 90 312q92 127 242 127q168 0 168 -232q0 -152 -84 -297q-82 -143 -219 -143q-113 0 -156 57q-41 55 -41 176zM248 0l790 1536h148l-791 -1536h-147zM367 975q0 -133 55 -133q78 0 127 116q47 113 47 279q0 129 -51 129t-107 -84q-59 -88 -67 -219 q-4 -65 -4 -88zM727 233q0 188 90 312q92 127 242 127q92 0 139 -60q49 -61 49 -172q0 -70 -18 -143q-16 -68 -55 -141q-37 -70 -101 -113q-66 -43 -149 -43q-113 0 -156 57q-41 55 -41 176zM864 209q0 -133 56 -133q80 0 122 110q45 117 45 271q0 139 -57 139 q-49 0 -100 -82q-49 -80 -62 -217q-4 -65 -4 -88z" />
<glyph unicode="&#x26;" horiz-adv-x="1394" d="M23 401q0 158 98 287t272 166q-203 111 -203 311q0 150 123 260.5t332 110.5q162 0 268 -68q109 -68 109 -206q0 -188 -143 -189q-70 0 -117 53q37 10 63 68q27 55 27 100q0 152 -135 152q-111 0 -180 -74q-70 -72 -70 -178q0 -100 65 -186q70 -92 205 -152 q-184 -78 -268 -186q-88 -113 -88 -226q0 -115 70 -192q70 -80 170 -80q125 0 227 90q100 88 143 297q-39 0 -71 4q-49 6 -74 6q-131 0 -193 -92l-14 2q31 127 137 209q104 80 258 80q45 0 80 -4q53 -6 76 -6q145 0 194 88h13q0 -86 -94 -174q-96 -90 -218 -111 q-35 -123 -75 -209q-49 -104 -82 -149q-47 -63 -97 -103q-59 -45 -98 -65q-41 -20 -100 -33q-33 -6 -96 -12q-25 -2 -91 -2q-205 0 -313 121q-110 122 -110 292z" />
<glyph unicode="'" horiz-adv-x="401" d="M31 1149l125 387h215l-187 -387h-153z" />
<glyph unicode="(" horiz-adv-x="892" d="M283 205q0 270 79 536q80 268 236 486q152 211 352 309l27 -82q-145 -72 -275 -283q-127 -205 -198 -483q-72 -276 -72 -538q0 -383 150 -603l-68 -59q-231 256 -231 717z" />
<glyph unicode=")" horiz-adv-x="843" d="M-59 -430q225 115 384.5 504t159.5 800q0 383 -149 603l67 59q231 -256 232 -717q0 -270 -80 -538q-80 -264 -236 -484q-152 -211 -352 -309z" />
<glyph unicode="*" horiz-adv-x="1052" d="M176 1026l223 129l-223 129l62 107l219 -127v276h131v-276l219 127l61 -107l-223 -129l223 -129l-61 -106l-219 127v-277h-131v277l-219 -127z" />
<glyph unicode="+" horiz-adv-x="1052" d="M109 420l49 229h262l55 250h232l-56 -250h260l-47 -229h-262l-55 -252h-232l56 252h-262z" />
<glyph unicode="," horiz-adv-x="440" d="M49 154q0 70 47 116.5t115 46.5q66 0 102.5 -43t36.5 -112q0 -95 -74 -215q-76 -125 -192 -205q-18 12 -18 35q0 35 53 92t53 94q0 23 -27 41q-96 66 -96 150z" />
<glyph unicode="-" horiz-adv-x="591" d="M39 455l37 161h409l-34 -161h-412z" />
<glyph unicode="." horiz-adv-x="536" d="M63 154q0 63 48 114q45 49 114 49q68 0 117 -49q47 -47 47 -114q0 -70 -47 -115q-51 -47 -117 -47q-68 0 -115 47t-47 115z" />
<glyph unicode="/" horiz-adv-x="634" d="M23 -512l434 2048h147l-434 -2048h-147z" />
<glyph unicode="0" horiz-adv-x="1116" d="M61 520q0 276 84 510q82 227 248 369q162 137 379 137q365 0 365 -535q0 -160 -43 -331q-43 -174 -123 -330t-207 -256q-131 -102 -279 -102q-246 0 -335 131q-89 126 -89 407zM375 463q0 -309 121 -309q115 0 200.5 147.5t128.5 368.5t43 463q0 141 -22 221 q-20 76 -88 76q-102 0 -225 -221.5t-148 -542.5q-10 -154 -10 -203z" />
<glyph unicode="1" horiz-adv-x="647" d="M43 0l270 1278h-194l24 94q254 0 521 160l-326 -1532h-295z" />
<glyph unicode="2" horiz-adv-x="1005" d="M-25 59q0 89 37 179q39 92 97 161q55 66 133 148l143 151q76 82 133 160t96 184q37 100 37 213q0 72 -39 119q-40 49 -86 49q-96 0 -131 -41t-35 -125q0 -43 18.5 -86t59.5 -53q-76 -70 -157 -69q-61 0 -105 49q-41 47 -41 135q0 123 105 211q106 90 317 90 q389 0 389 -330q0 -129 -59 -243q-61 -119 -150 -205q-86 -84 -188 -166q-84 -68 -191 -164q-96 -88 -141 -156q37 0 164 -16q141 -18 205 -21q109 0 162 27q55 29 145 115q2 -23 2 -90q0 -166 -49 -236q-49 -72 -195 -72q-113 0 -260 37t-248 37q-16 0 -51 -10 q-14 -4 -63 -27q-43 -18 -47 -20q-7 34 -7 65z" />
<glyph unicode="3" horiz-adv-x="1050" d="M12 319q0 144 62 228q61 84 180 84q144 0 166 -105q-78 -6 -121 -49q-39 -39 -49 -86t-10 -106q0 -96 47 -131t135 -35q106 0 178 108.5t72 247.5q0 125 -66 232q-63 102 -198 149q166 46 258 166q90 117 90 240q0 76 -33 116q-35 45 -96 45q-186 0 -187 -166 q0 -43 18.5 -86t59.5 -53q-76 -70 -158 -69q-65 0 -104 49q-41 51 -41 135q0 119 113 211q111 90 329 90q169 0 265 -86t96 -215q0 -106 -72 -208.5t-207 -170.5q126 -40 191 -129q63 -88 63 -203q0 -193 -155 -364q-154 -168 -373 -168q-58 0 -111 6q-70 8 -118 24 q-65 22 -111 56q-47 35 -80 96q-33 63 -33 147z" />
<glyph unicode="4" horiz-adv-x="972" d="M16 563q20 59 107 240q82 168 135 321q57 162 57 289q0 68 -14 123q94 0 160 -51q68 -51 67 -144q0 -88 -34 -182q-34 -92 -74 -153l-101 -150q-66 -96 -90 -141h320l166 780l303 41l-176 -821h131l-41 -152h-123l-119 -563h-295l121 563h-500z" />
<glyph unicode="5" horiz-adv-x="1056" d="M31 297q0 131 79.5 204.5t178.5 73.5q132 0 153 -104q-184 -25 -184 -209q0 -86 53.5 -123t130.5 -37q119 0 181 127q63 133 63 303q0 102 -59 187q-57 82 -164 82q-125 0 -307 -115l168 817q313 -35 368 -35q164 0 332 66q4 -61 4 -68q0 -106 -57 -174q-55 -63 -168 -63 q-76 0 -205 24l-147 27l-82 -371q129 63 254 64q178 0 270 -119q92 -121 92 -309q0 -221 -151 -389q-150 -166 -416 -166q-78 0 -144 10q-53 8 -120 39q-57 27 -91 94q-32 70 -32 164z" />
<glyph unicode="6" horiz-adv-x="1015" d="M33 395q0 57 2 76q33 483 219 774t512 291q109 0 172 -51t63 -117q0 -53 -47 -94q-49 -43 -135 -45q33 31 33 74q0 47 -29 77q-31 33 -73 33q-33 0 -60 -8q-35 -10 -90 -59q-61 -55 -108 -138q-53 -94 -101 -262q-49 -178 -74 -418q-10 -119 -10 -159q0 -143 43 -193 q45 -51 127 -51q98 0 185 147q88 152 88 310q0 199 -109 198q-104 0 -180 -155q-41 59 -41 118q0 88 86 146q88 59 203 59q135 0 206 -102q70 -100 70 -236q0 -258 -164 -440q-162 -180 -389 -180q-119 0 -199 30q-76 29 -122 93q-39 53 -60 127q-18 67 -18 155z" />
<glyph unicode="7" horiz-adv-x="948" d="M68 256q0 94 36 205q37 113 89 205q55 98 147 225l172 219l201 236q-89 12 -172 12q-295 0 -426 -146q-16 76 -17 119q0 100 66 154q63 51 213 51h672l-349 -539q-233 -371 -268 -454q-66 -154 -65 -264q0 -117 100 -199q-31 -80 -188 -80q-100 0 -155.5 55.5 t-55.5 200.5z" />
<glyph unicode="8" horiz-adv-x="1019" d="M-16 401q0 150 96 277t272 176q-174 100 -174 279q0 156 131 278q132 123 326 123q186 0 285 -84q102 -86 102 -213q0 -106 -76 -213q-72 -102 -211 -170q125 -39 186.5 -125t61.5 -194q0 -199 -166 -371q-168 -174 -401 -174q-201 0 -316 121q-116 122 -116 290z M281 324q0 -86 38 -148q37 -57 107 -57q100 0 168 108.5t68 247.5q0 199 -130 309q-121 -80 -186 -210.5t-65 -249.5zM446 1171q0 -158 109 -247q96 63 151.5 167.5t55.5 202.5q0 70 -26.5 109t-80.5 39q-98 0 -153.5 -80t-55.5 -191z" />
<glyph unicode="9" horiz-adv-x="999" d="M55 164q0 55 45 92q47 39 133 41q-29 -29 -28 -70q0 -46 31 -80q31 -35 73 -34q8 0 37 4q8 2 60 24q45 20 75 52q43 41 78 98q45 70 78 158q33 86 61 233q29 150 41 315q4 102 4 107q0 174 -45 237q-41 59 -135 60q-98 0 -178 -141q-82 -145 -82 -304q0 -83 25 -147 q25 -63 90 -64q126 0 172 123q43 -53 43 -102q0 -78 -80 -133t-195 -55q-141 0 -214.5 108.5t-73.5 249.5q0 256 153.5 428t376.5 172q395 0 395 -481q0 -307 -84 -549t-241.5 -379t-368.5 -137q-109 0 -178 53q-68 51 -68 121z" />
<glyph unicode=":" horiz-adv-x="544" d="M84 276q0 63 47 115q45 49 115 49q68 0 116 -49q47 -47 48 -115q0 -70 -48 -114q-51 -47 -116 -47q-68 0 -115 46.5t-47 114.5zM186 768q0 66 47 117q45 47 115 47t117 -47t47 -117t-47 -115q-51 -47 -117 -47q-68 0 -115 47t-47 115z" />
<glyph unicode=";" horiz-adv-x="563" d="M94 186q0 63 47 115q47 49 115 49q66 0 102.5 -43t36.5 -112q0 -95 -73 -215q-76 -125 -193 -205q-18 12 -18 35q0 35 53 92t53 94q0 23 -27 41q-96 65 -96 149zM193 678q0 63 47 115q47 49 114 49q66 0 115 -49.5t49 -114.5q0 -68 -49 -115q-51 -47 -115 -47 q-68 0 -114.5 47t-46.5 115z" />
<glyph unicode="&#x3c;" horiz-adv-x="733" d="M41 487l18 84l629 308l-20 -113l-494 -246l397 -196l-24 -117z" />
<glyph unicode="=" horiz-adv-x="1052" d="M66 207l49 229h753l-47 -229h-755zM156 647l49 230h753l-47 -230h-755z" />
<glyph unicode="&#x3e;" horiz-adv-x="702" d="M31 207l28 117l492 196l-397 246l18 113l504 -308l-23 -110z" />
<glyph unicode="?" horiz-adv-x="901" d="M98 164q0 70 49 115q51 47 115 47q68 0 115 -47.5t47 -114.5q0 -66 -47 -117q-45 -47 -115 -47q-68 0 -115 47q-49 49 -49 117zM113 1104q0 123 110 227q109 102 320 103q195 0 260 -64q68 -65 67 -184q0 -109 -41 -195q-41 -84 -104 -139q-86 -74 -129 -107 q-70 -53 -127 -118q-63 -74 -90 -152h-135q0 80 37 154q33 68 94 131l110 119q53 59 93 139q39 82 38 164q0 70 -32 106q-31 35 -80 35q-63 0 -113 -47q-51 -49 -51 -123q0 -39 20 -84q20 -43 58 -51q-53 -86 -150 -86q-63 0 -108 45q-47 47 -47 127z" />
<glyph unicode="@" horiz-adv-x="1148" d="M-16 311q0 207 69 371q72 170 174 262q106 96 213 146q113 51 199 51q367 0 367 -297q0 -225 -109 -395t-244 -170q-43 0 -69 16q-53 -47 -160 -47q-47 0 -78 51q-31 53 -31 109q0 51 17 116q14 59 51 158q31 84 88 143.5t123 59.5q43 0 68 -35l8 31l114 -13l-92 -393 q-8 -31 -8 -47q0 -39 27 -39q57 0 106 174q51 182 51 281q0 80 -43 123t-161 43q-176 0 -315.5 -199t-139.5 -477q0 -100 55 -164t154 -64q199 0 293 95q27 27 47 26q18 0 49 -24q27 -20 27 -35q0 -10 -11 -23q-78 -115 -207 -170q-125 -53 -262 -53q-150 0 -260 98 t-110 291zM449 434q0 -33 14 -51q12 -14 59 -14q14 0 31 10v20q0 28 6 43l86 342q-14 14 -43 15q-63 0 -108 -131q-45 -130 -45 -234z" />
<glyph unicode="A" horiz-adv-x="1366" d="M18 696q0 92 121 164t279 72q53 0 121 -6q166 266 356 440q186 172 358 172q90 0 164 -31l-321 -1507h-295l157 743q-150 63 -276 74q-121 -262 -190 -512q-74 -260 -74 -422q0 -27 4 -59q4 -27 8 -31q2 -2 5 -6t5 -6q6 -6 6 -12q-59 4 -84 6q-33 4 -71 14q-41 10 -64 37 q-18 20 -37 65q-18 43 -18 107q0 131 84 360q86 236 217 459q-203 -16 -240 -106q8 0 17 -21q10 -25 10 -43q0 -37 -31 -57q-33 -23 -94 -23q-49 0 -84 31q-33 30 -33 98zM723 903q139 -25 254 -69l119 557q-178 -97 -373 -488z" />
<glyph unicode="B" horiz-adv-x="1298" d="M12 1004q0 201 229.5 366.5t489.5 165.5q227 0 346 -94t119 -234q0 -90 -55 -180q-55 -88 -150 -143q119 -20 178 -115q57 -90 58 -219q0 -211 -123 -397q-123 -188 -285 -189q-59 0 -121 8q-47 6 -82 39q-39 35 -38 94q0 49 26 130q47 -74 137 -74q80 0 142 119 q61 120 61 258q0 109 -47 180.5t-139 71.5q-47 0 -103 -7l-168 -784h-294l278 1303l303 40l-98 -454h14q121 0 207 106q84 104 84 232q0 92 -57 155q-53 59 -168 60q-250 0 -401.5 -133t-151.5 -365q0 -45 6 -76q6 -33 14 -45q8 -14 8 -18q-109 0 -165 47q-54 46 -54 152z " />
<glyph unicode="C" horiz-adv-x="1015" d="M49 510q0 143 19 278q18 137 67 275q51 145 125 242q80 106 199 168q121 63 280 63q154 0 256 -68q100 -68 101 -206q0 -188 -144 -189q-74 0 -116 53q37 10 63 68q27 55 27 100q0 25 -6 54q-6 31 -41 61.5t-95 30.5q-119 0 -217 -147.5t-147 -348.5q-49 -199 -49 -389 q0 -211 55 -297t215 -86q119 0 225 51q102 49 158 146l47 -21q-41 -109 -106 -180q-70 -76 -152 -113q-88 -39 -158 -53q-72 -14 -157.5 -14t-159.5 24q-78 27 -141 78q-70 57 -109 161.5t-39 258.5z" />
<glyph unicode="D" horiz-adv-x="1355" d="M12 1004q0 201 229.5 366.5t489.5 165.5q590 0 590 -553q0 -256 -78 -494q-76 -229 -211 -374q-131 -141 -278 -142q-123 0 -250 109l-17 -82h-294l278 1303l303 40l-246 -1148q57 -41 117 -41q117 0 209 141q90 139 137 342q47 205 47 403q0 211 -57 306q-59 96 -225 96 q-250 0 -401.5 -133t-151.5 -365q0 -45 6 -76q6 -33 14 -45q8 -14 8 -18q-109 0 -165 47q-54 46 -54 152z" />
<glyph unicode="E" horiz-adv-x="937" d="M23 401q0 158 98 287t272 166q-203 111 -203 311q0 150 123 260.5t332 110.5q162 0 268 -68q109 -68 109 -206q0 -188 -143 -189q-70 0 -117 53q37 10 63 68q27 55 27 100q0 152 -135 152q-111 0 -180 -74q-70 -72 -70 -178q0 -100 65 -186q70 -92 205 -152 q-184 -78 -268 -186q-88 -113 -88 -226q0 -115 70 -192q70 -80 170 -80q115 0 190 47q74 45 133 150l47 -21q-133 -360 -545 -360q-205 0 -313 121q-110 122 -110 292z" />
<glyph unicode="F" horiz-adv-x="1011" d="M18 1004q0 109 39 198q39 92 119 168q84 80 219 123q137 43 322 43q37 0 153.5 -12.5t186.5 -12.5q111 0 184 25q-8 -25 -16 -53q-14 -47 -21 -62q-16 -33 -28 -53q-18 -31 -52 -49q-39 -20 -77 -29q-106 0 -287 39l-101 -471h316l-41 -151h-307l-152 -707h-295l295 1368 q-131 -6 -199 -100q-68 -96 -67 -324q0 -45 6 -76q6 -33 14 -45q8 -14 9 -18q-109 0 -166 47q-54 46 -54 152z" />
<glyph unicode="G" horiz-adv-x="1181" d="M39 748q0 199 84 378q80 174 254 293q169 117 387 117q160 0 270.5 -67.5t110.5 -206.5q0 -188 -144 -189q-94 0 -141 53q34 9 62 68q29 61 28 100q0 25 -6 54q-6 31 -41 61.5t-94 30.5q-109 0 -217 -109q-106 -106 -172 -274t-66 -326q0 -147 58 -242q59 -96 180 -96 q117 0 174 76l88 387h264l-168 -770q-57 -260 -170 -383q-117 -127 -354 -127q-137 0 -211 82q-74 84 -74 201q0 114 68 196q68 84 182 84q31 0 68 -4q31 -4 61 -14q37 -14 53 -41q18 -31 19 -78q0 -35 -12 -82q-66 53 -123 53q-70 0 -107 -47q-37 -45 -37 -108 q0 -57 33 -98.5t96 -41.5q74 0 123 52q47 51 82 200l82 367q-139 -74 -250 -74q-231 0 -336 144q-104 144 -104 381z" />
<glyph unicode="H" horiz-adv-x="1290" d="M12 1004q0 201 229.5 366.5t489.5 165.5q12 0 82 -4l-133 -623q145 27 205 27q35 0 45 -2l127 598h295l-326 -1532h-295l162 760q-55 20 -131 20q-53 0 -111 -8l-164 -772h-294l296 1393q-139 -59 -213 -172q-74 -114 -73 -277q0 -45 6 -76q6 -33 14 -45q8 -14 8 -18 q-109 0 -165 47q-54 46 -54 152z" />
<glyph unicode="I" horiz-adv-x="768" d="M12 1004q0 201 229.5 366.5t489.5 165.5q12 0 82 -4l-326 -1532h-294l296 1391q-135 -59 -210 -170q-76 -113 -76 -277q0 -45 6 -76q6 -33 14 -45q8 -14 8 -18q-109 0 -165 47q-54 46 -54 152z" />
<glyph unicode="J" horiz-adv-x="1095" d="M35 -135q0 111 67.5 192.5t182.5 81.5q31 0 67 -4q31 -4 62 -14q37 -14 53 -41q18 -31 18 -78q0 -35 -12 -82q-66 53 -123 53q-70 0 -106 -45q-37 -47 -37 -106q0 -72 43 -109q41 -35 96 -35q76 0 119 51.5t76 200.5l321 1463q-135 -57 -213 -172q-76 -113 -76 -277 q0 -45 7 -76q6 -33 14 -45q8 -14 8 -18q-109 0 -166 47q-53 45 -53 152q0 201 229 366q231 166 490 166h82l-307 -1454q-51 -252 -177 -379q-123 -127 -362 -127q-143 0 -223 80t-80 209z" />
<glyph unicode="K" horiz-adv-x="1228" d="M12 1004q0 201 229.5 366.5t489.5 165.5q12 0 82 -4l-135 -627l98 131l123 164l119 158l92 121l35 47h215l-572 -658q37 4 74 4q254 0 254 -219q0 -88 -49 -272q-51 -193 -51 -246q0 -104 80 -135q-123 -35 -203 -35q-160 0 -160 137q0 66 55 263q53 188 54 276 q0 137 -123 137q-37 0 -68 -8l-164 -770h-294l296 1393q-139 -59 -213 -172q-74 -114 -73 -277q0 -45 6 -76q6 -33 14 -45q8 -14 8 -18q-109 0 -165 47q-54 46 -54 152z" />
<glyph unicode="L" horiz-adv-x="800" d="M12 983q0 201 229.5 367t489.5 166q12 0 82 -5l-315 -1470q82 -18 204.5 -86t245.5 -123t238 -55q94 0 172 33q-15 -147 -74 -234q-59 -88 -139 -88q-82 0 -170 47q-94 51 -176 117l-172 137q-94 72 -191 117q-100 47 -205 47q-37 0 -47 -2l305 1419q-133 -57 -210 -172 q-76 -113 -76 -274q0 -45 6 -76q6 -33 14 -45q8 -14 8 -19q-109 0 -165 47q-54 46 -54 152z" />
<glyph unicode="M" horiz-adv-x="1605" d="M76 1004q0 123 98 245.5t256 200.5q160 78 311 78q80 0 142 -21v-1179l448 1179h322l-322 -1507h-295l205 969l-389 -969h-281v874l-270 -874h-164l459 1407q-158 -49 -244 -170q-86 -119 -86 -293q0 -45 6 -76q6 -33 15 -45q8 -14 8 -18q-109 0 -166 47q-53 46 -53 152z " />
<glyph unicode="N" horiz-adv-x="1435" d="M12 1004q0 201 229.5 366.5t489.5 165.5q125 0 156 -73.5t31 -307.5q0 -152 -11 -348q-12 -238 -12 -334q0 -160 20 -223l273 1282h295l-326 -1532h-295q-119 0 -119 418q0 98 7 321q8 299 8 332q0 104 -4 182l-267 -1253h-294l296 1393q-139 -59 -213 -172 q-74 -114 -73 -277q0 -45 6 -76q6 -33 14 -45q8 -14 8 -18q-109 0 -165 47q-54 46 -54 152z" />
<glyph unicode="O" d="M12 1004q0 201 229.5 366.5t489.5 165.5q295 0 428 -139.5t133 -415.5q0 -158 -45 -326q-47 -174 -123 -323q-78 -152 -194 -250q-119 -100 -250 -100q-205 0 -313 108q-106 106 -107 354q0 154 27 306q29 166 78 294q51 137 139 228q86 88 194 88q37 0 97 -17 q-276 -365 -277 -858q0 -139 41 -237q39 -94 121 -94q86 0 174 137q90 139 145.5 342t55.5 391q0 106 -11 162q-14 74 -40 129q-33 63 -93 94q-66 33 -155 33q-250 0 -401.5 -133t-151.5 -365q0 -45 6 -76q6 -33 14 -45q8 -14 8 -18q-109 0 -165 47q-54 46 -54 152z" />
<glyph unicode="P" horiz-adv-x="1171" d="M12 1004q0 201 229.5 366.5t489.5 165.5q240 0 361 -115q123 -117 122 -288q0 -211 -165 -379q-166 -170 -426 -170h-11l-125 -584h-294l278 1303l303 40l-145 -684q147 12 252 172q106 164 106 332q0 125 -63 201q-66 78 -191 78q-252 0 -391 -131t-139 -367 q0 -45 6 -76q6 -33 14 -45q8 -14 8 -18q-109 0 -165 47q-54 46 -54 152z" />
<glyph unicode="Q" d="M12 1004q0 201 229.5 366.5t489.5 165.5q295 0 428 -139.5t133 -415.5q0 -225 -96 -485q-94 -256 -248 -398q61 -84 109 -118q53 -39 139 -39l45 4q-37 -100 -88 -138q-55 -39 -123 -38q-115 0 -170 61q-51 57 -86 166q-49 -14 -94 -14q-440 0 -440 473q0 147 30 303 q31 160 82 291q53 137 142 225q86 86 188 86q37 0 92 -17q-276 -365 -276 -856q0 -98 22 -184q68 18 123 19q101 0 172 -62q96 123 168 344t72 420q0 106 -11 162q-14 74 -40 129q-33 63 -93 94q-66 33 -155 33q-250 0 -401.5 -133t-151.5 -365q0 -45 6 -76q6 -33 14 -45 q8 -14 8 -18q-109 0 -165 47q-54 46 -54 152zM543 240q43 -86 116 -86q27 0 54 14q-43 78 -121 78q-21 0 -49 -6z" />
<glyph unicode="R" horiz-adv-x="1228" d="M12 1004q0 201 229.5 366.5t489.5 165.5q227 0 346 -94t119 -234q0 -92 -59 -192q-55 -92 -162 -158q141 -39 141 -205q0 -88 -49 -274q-51 -195 -51 -244q0 -104 80 -135q-123 -35 -203 -35q-160 0 -160 137q0 61 53.5 262t53.5 277q0 139 -123 139q-35 0 -66 -8 l-164 -772h-294l278 1303l303 40l-102 -475h18q121 0 207 115q84 111 84 244q0 92 -57 155q-53 59 -168 60q-250 0 -401.5 -133t-151.5 -365q0 -45 6 -76q6 -33 14 -45q8 -14 8 -18q-109 0 -165 47q-54 46 -54 152z" />
<glyph unicode="S" horiz-adv-x="1165" d="M70 319q0 135 88 215t213 80q144 0 166 -104q-125 -8 -182.5 -63.5t-57.5 -161.5q0 -96 61 -146q63 -51 142 -51q115 0 170 84q55 83 55 209q0 92 -33 170t-82 133l-106 113l-107 106q-45 45 -82 115q-33 63 -32 137q0 160 149 270q151 111 338 111q344 0 344 -246 q0 -90 -47 -149q-45 -57 -123 -58q-55 0 -92 43q41 25 66 74q27 53 26 103q0 58 -37 98q-37 39 -112 39q-84 0 -137.5 -47t-53.5 -131q0 -72 35 -138q35 -68 84 -110l111 -101q55 -49 112 -110q49 -53 84 -144q35 -92 35 -194q0 -217 -147.5 -346t-395.5 -129q-59 0 -112 6 q-66 8 -117 24q-68 23 -113 56t-77.5 96t-32.5 147z" />
<glyph unicode="T" horiz-adv-x="983" d="M12 1001q0 109 39 199q39 92 119 168q84 80 219 123q139 43 322 43q29 0 219 -18q170 -16 307 -17q160 0 236 31q-4 -8 -15 -60q-4 -18 -20 -73q-8 -25 -29 -64q-18 -33 -51 -51q-31 -16 -80 -16q-76 0 -379 53l-283 -1319h-294l290 1354q-195 0 -303 -86 q-106 -86 -106 -326q0 -45 6 -75.5t14 -45t8 -18.5q-109 0 -165 47q-54 45 -54 151z" />
<glyph unicode="U" horiz-adv-x="1386" d="M12 1004q0 201 229.5 366.5t489.5 165.5q113 0 154 -10q-139 -182 -252 -494q-115 -315 -115 -547q0 -139 41 -237q39 -94 121 -94q109 0 199 157l262 1221h293l-326 -1532h-295l23 106q-115 -104 -199 -104q-186 0 -282.5 100.5t-96.5 333.5q0 240 86 539 q84 293 240 448q-176 -43 -279 -166q-102 -125 -102 -313q0 -45 6 -76q6 -33 14 -45q8 -14 8 -18q-109 0 -165 47q-54 46 -54 152z" />
<glyph unicode="V" horiz-adv-x="1257" d="M12 1004q0 201 229.5 366.5t489.5 165.5q12 0 82 -4l18 -1260l431 1254h143l-569 -1526h-295v1399q-166 -53 -252 -168q-86 -117 -86 -287q0 -45 6 -76q6 -33 14 -45q8 -14 8 -18q-109 0 -165 47q-54 46 -54 152z" />
<glyph unicode="W" horiz-adv-x="1984" d="M12 1004q0 201 229.5 366.5t489.5 165.5q12 0 82 -4l18 -1260l431 1254h260v-1254l448 1254h144l-570 -1526h-295v1042l-413 -1042h-295v1399q-166 -53 -252 -168q-86 -117 -86 -287q0 -45 6 -76q6 -33 14 -45q8 -14 8 -18q-109 0 -165 47q-54 46 -54 152z" />
<glyph unicode="X" horiz-adv-x="1267" d="M12 1004q0 201 229.5 366.5t489.5 165.5q12 0 82 -4l88 -426l238 420h143l-344 -596l192 -930h-325l-109 512l-297 -512h-125l385 680l-151 719q-145 -53 -225 -170t-80 -285q0 -45 6 -76q6 -33 14 -45q8 -14 8 -18q-109 0 -165 47q-54 46 -54 152z" />
<glyph unicode="Y" horiz-adv-x="1267" d="M12 1004q0 201 229.5 366.5t489.5 165.5q12 0 82 -4l178 -733l303 727h136l-398 -895l-135 -631h-328l136 631l-197 768q-145 -53 -225 -170t-80 -285q0 -45 6 -76q6 -33 14 -45q8 -14 8 -18q-109 0 -165 47q-54 46 -54 152z" />
<glyph unicode="Z" horiz-adv-x="1083" d="M23 0l729 1450q-127 4 -205 4q-168 0 -168 -45q15 0 24 -18q10 -20 11 -41q0 -123 -129 -123q-41 0 -70 35q-27 33 -27 84q0 84 62 137q63 53 178 53h702l-712 -1417q127 -4 297 -4q113 0 112 45q-12 0 -24 16.5t-12 40.5q0 125 131 125q41 0 69 -35q27 -33 27 -84 q0 -88 -70 -155q-72 -68 -186 -68h-739z" />
<glyph unicode="[" horiz-adv-x="817" d="M-49 -512l434 2048h395l-26 -125h-248l-381 -1796h248l-27 -127h-395z" />
<glyph unicode="\" horiz-adv-x="739" d="M86 1536h147l435 -2048h-148z" />
<glyph unicode="]" horiz-adv-x="817" d="M-49 -512l26 125h248l381 1796h-248l27 127h395l-434 -2048h-395z" />
<glyph unicode="^" horiz-adv-x="860" d="M102 1149l435 387h43l122 -387h-65l-123 164l-321 -164h-91z" />
<glyph unicode="_" horiz-adv-x="907" d="M74 0l37 162h716l-34 -162h-719z" />
<glyph unicode="`" horiz-adv-x="409" d="M49 1536h215l60 -387h-154z" />
<glyph unicode="a" horiz-adv-x="1028" d="M-37 247.5q0 106.5 17 217.5q14 100 55 207q39 102 98 180q58 77 154 123q98 47 213 47q78 0 137 -51l12 53h295l-147 -696q-8 -41 -9 -64q0 -78 103 -78q33 0 67 21q41 25 66 43l74 61q45 41 63 56h70q-2 -2 -6 -7.5t-19.5 -20.5t-42.5 -44l-100 -102l-102 -89 q-59 -49 -115 -77q-53 -27 -101 -27q-213 0 -249 156q-123 -168 -279 -168q-137 0 -194 75q-60 78 -60 184.5zM240 303q0 -145 118 -145q59 0 131 102q3 31 13 68l114 542q-43 37 -100 37q-113 0 -194 -192q-82 -191 -82 -412z" />
<glyph unicode="b" horiz-adv-x="878" d="M-37 227q0 45 12 101l228 1065l303 41l-98 -465q82 59 176 59q137 0 198.5 -78t61.5 -182q0 -121 -35 -256q-35 -137 -98 -252q-66 -121 -172 -192q-109 -74 -238 -74q-338 0 -338 233zM254 215q0 -47 20.5 -61.5t69.5 -14.5q80 0 143 125q66 127 97 266q31 137 30 224 q0 84 -34 118q-33 33 -82 33q-23 0 -58 -8q-37 -8 -53 -20l-117 -549q-16 -82 -16 -113z" />
<glyph unicode="c" horiz-adv-x="735" d="M-27 336q0 88 17 186q16 96 55 187q41 94 98.5 163.5t149.5 112.5q96 45 207 45q225 0 225 -141q0 -31 -10 -68q-23 12 -51 13q-25 0 -66 -13q10 41 10 58q0 70 -76 69q-119 0 -200 -184q-82 -182 -82 -371q0 -102 31 -162q31 -57 118 -57q184 0 357 193h69 q-31 -37 -59 -78q-33 -47 -84 -103q-33 -37 -98 -88q-61 -49 -144 -73q-84 -25 -186 -25q-281 0 -281 336z" />
<glyph unicode="d" horiz-adv-x="1042" d="M-37 247.5q0 106.5 17 217.5q14 100 55 207q39 102 98 180q58 77 154 123q98 47 213 47q78 0 137 -51l90 422l303 41l-233 -1106l-11 -66q0 -76 103 -76q33 0 67 21q41 25 66 43l74 61q45 41 63 56h70q-2 -2 -6 -7.5t-19.5 -20.5t-42.5 -44l-100 -102l-103 -89 q-55 -47 -116 -77q-53 -27 -99 -27q-211 0 -247 156q-123 -168 -279 -168q-137 0 -194 75q-60 78 -60 184.5zM240 303q0 -145 118 -145q59 0 131 102q3 31 13 68l114 542q-43 37 -100 37q-113 0 -194 -192q-82 -191 -82 -412z" />
<glyph unicode="e" horiz-adv-x="724" d="M-37 326q0 109 25 223q27 121 75 231q51 117 152 189q100 74 231 73q262 0 263 -213q0 -176 -146 -284q-150 -113 -317 -133q-6 -49 -6 -88q0 -90 49 -133.5t119 -43.5q80 0 186 80q102 76 158 191h92q-100 -178 -248 -299q-145 -119 -330 -119q-143 0 -223 92.5 t-80 233.5zM262 510q137 4 230 98q90 94 94 211q0 115 -72 115q-55 0 -106 -68q-49 -66 -89 -159q-34 -86 -57 -197z" />
<glyph unicode="f" horiz-adv-x="552" d="M-414 -291q0 66 27 119q25 51 80 84q72 43 104 57q59 25 142 47l247 1170q74 348 373 348q100 0 170 -61q72 -61 72 -160q0 -47 -6 -84h-97q4 53 4 55q0 33 -22 51q-20 18 -55 19q-43 0 -84 -37t-60 -131l-35 -162h150l-14 -82h-152l-235 -1106q-78 -348 -367 -348 q-96 0 -170 63q-72 62 -72 158zM-301 -262q0 -25 25 -45q27 -23 57 -23q83 0 117 160l26 119q-115 -39 -168 -84q-57 -49 -57 -127z" />
<glyph unicode="g" horiz-adv-x="1011" d="M-51 270q0 98 14 187q18 113 49 200q35 100 92 183q53 78 146 131q88 51 205 51q113 0 161 -96l23 98h295l-193 -907q229 119 316 313l-8 -162q-18 -94 -105 -155q-84 -59 -227 -113l-35 -164q-74 -348 -369 -348q-100 0 -163 51q-66 53 -66 148q0 113 84 178 q82 63 250 125l20 92q-106 -98 -235 -98q-131 0 -192.5 87.5t-61.5 198.5zM197 -285q0 -23 20 -47q18 -20 49 -20q34 0 68 49q33 47 51 133l12 61q-200 -78 -200 -176zM201 309q0 -129 149 -129q55 0 123 72l121 567q-45 88 -117 88q-90 0 -157.5 -116.5t-92.5 -245.5 q-26 -140 -26 -236z" />
<glyph unicode="h" horiz-adv-x="1052" d="M-90 0l297 1393l303 41l-111 -519q156 109 267 109q88 0 161 -78q74 -77 74 -178q0 -29 -4 -49l-84 -391q-10 -45 -10 -66q0 -76 102 -76q33 0 68 21q41 25 65 43l74 61l64 56h69l-69 -72q-78 -80 -101 -102q-37 -35 -100 -89q-55 -47 -117 -77q-53 -27 -98 -27 q-254 0 -254 223q0 46 12 105l78 368q6 29 6 54q0 55 -26.5 87.5t-67.5 32.5q-66 0 -127 -43l-176 -827h-295z" />
<glyph unicode="i" horiz-adv-x="548" d="M-29 223q0 46 13 105l147 696h295l-147 -696q-8 -41 -9 -64q0 -78 103 -78q33 0 67 21q41 25 66 43l74 61q45 41 63 56h70q-2 -2 -6.5 -7.5t-19.5 -20.5l-42 -44l-100 -102l-103 -89q-55 -47 -116 -77q-53 -27 -99 -27q-256 0 -256 223zM170 1294q0 63 47 115 q45 49 115 49q68 0 117 -49q47 -47 47 -115q0 -70 -47 -114q-51 -47 -117 -47q-68 0 -115 46.5t-47 114.5z" />
<glyph unicode="j" horiz-adv-x="450" d="M-457 -291q0 70 25 119q23 47 82 86q49 33 108 57q47 18 138 45l215 1008h295l-191 -897q223 106 313 303l-8 -162q-18 -84 -102 -141q-78 -53 -223 -94l-41 -197q-74 -348 -369 -348q-96 0 -170 63q-72 62 -72 158zM-344 -262q0 -25 25 -45q27 -23 57 -23q37 0 69 37 q29 31 50 123l24 119q-115 -39 -168 -84q-57 -49 -57 -127zM133 1298q0 63 47 115q45 49 115 49q66 0 115 -49t49 -115q0 -70 -49 -114q-51 -47 -115 -47q-68 0 -115 46.5t-47 114.5z" />
<glyph unicode="k" horiz-adv-x="999" d="M-84 0l297 1393l303 41l-154 -717l168 133l162 125l35.5 28.5t23 17.5t7.5 3h221l-416 -281q27 6 53 7q84 0 162 -78q76 -76 76 -176q0 -27 -6 -52l-29 -116q-10 -41 -10 -66q0 -76 102 -76q35 0 74 29q37 28 86 80q45 47 76 72h70q-27 -27 -87 -95l-116 -127 q-47 -51 -121 -98q-72 -47 -127 -47q-121 0 -188.5 55.5t-67.5 163.5q0 57 14 109l23 94q6 29 6 53q0 55 -26.5 88t-67.5 33q-66 0 -131 -45l-117 -551h-295z" />
<glyph unicode="l" horiz-adv-x="583" d="M-12 223q0 46 12 105l227 1065l303 41l-235 -1106q-10 -57 -10 -66q0 -76 102 -76q33 0 68 21q41 25 65 43l74 61q45 41 63 56h70q-2 -2 -6 -7.5t-19.5 -20.5t-42.5 -44q-61 -66 -102 -102q-37 -35 -100 -89q-59 -49 -115 -77q-53 -27 -100 -27q-254 0 -254 223z" />
<glyph unicode="m" horiz-adv-x="1521" d="M-88 0l217 1024h295l-23 -109q152 109 265 109q55 0 112 -39q55 -37 90 -96q168 135 299 135q86 0 160 -78q76 -80 76 -180q0 -2 -4 -47l-84 -391q-10 -45 -10 -76q0 -84 84 -84q101 0 215 209h96l-64 -78l-88 -104q-12 -14 -88 -91q-57 -57 -102 -79q-49 -25 -96 -25 q-254 0 -254 223q0 46 12 105l78 368q6 29 6 54q0 55 -26.5 87.5t-67.5 32.5q-57 0 -119 -36q10 -45 10 -72q0 -6 -4 -43l-152 -719h-296l147 696q6 29 6 54q0 55 -26.5 87.5t-67.5 32.5q-63 0 -125 -43l-176 -827h-295z" />
<glyph unicode="n" horiz-adv-x="1028" d="M-74 0l217 1024h295l-24 -111q152 111 268 111q88 0 162 -78q74 -77 74 -178q0 -29 -5 -49l-84 -391q-10 -41 -10 -66q0 -76 103 -76q37 0 63 15q28 15 68 55q35 35 63 59h70l-14.5 -15t-28 -31.5t-35.5 -39.5q-65 -71 -104 -110q-37 -37 -107 -80q-63 -39 -121 -39 q-254 0 -254 223q0 46 13 105l77 368q6 29 6 54q0 55 -26.5 87.5t-67.5 32.5q-65 0 -129 -43l-174 -827h-295z" />
<glyph unicode="o" horiz-adv-x="854" d="M-14 324q0 354 155 538q154 182 383 182q238 0 248 -301q18 -18 59 -18q55 0 127 47q76 49 89 53l8 -43q-100 -127 -289 -180q-29 -293 -164 -452q-137 -162 -303 -162t-240 78q-73 77 -73 258zM258 342q0 -88 35 -121q39 -35 102 -35q59 0 106.5 59.5t73.5 143.5 q27 82 39 193q-45 0 -65.5 26.5t-20.5 65.5q0 45 25 88q23 39 65 55q-8 106 -86 107q-70 0 -122 -66q-59 -74 -88 -164q-33 -104 -48 -190q-16 -99 -16 -162z" />
<glyph unicode="p" horiz-adv-x="929" d="M-197 -512l326 1536h295l-8 -39q72 37 143 37q162 0 237.5 -65.5t75.5 -221.5q0 -63 -12 -143q-86 -590 -448 -590q-94 0 -193 61l-106 -501zM246 190q49 -37 133 -36q77 0 123 86q41 78 96 327q27 127 27 207q0 88 -29 117q-31 31 -86 31q-52 0 -117 -43z" />
<glyph unicode="q" horiz-adv-x="972" d="M-29 225q0 348 152 574q150 223 371 223q123 0 159 -55l13 57h295l-312 -1462l-309 -74l162 762q-143 -242 -303 -242q-104 0 -166 55.5t-62 161.5zM229 291q0 -70 13 -103q12 -35 55 -34q82 0 231 223l72 340q18 92 18 129q0 86 -79 86q-76 0 -150 -98 q-74 -96 -117 -248q-43 -148 -43 -295z" />
<glyph unicode="r" horiz-adv-x="802" d="M-66 0l218 1024h294l-22 -102q133 102 242 102q68 0 108 -37q39 -37 39 -94q0 -59 -43 -109q-45 -51 -111 -51q-41 0 -59 21q-16 20 -20 47q-4 31 -11 45q-10 23 -28 22q-70 0 -142 -65l-170 -803h-295z" />
<glyph unicode="s" horiz-adv-x="829" d="M-18 268q0 119 45 189q47 74 110 75q88 162 156 472l297 61v-29q0 -141 35 -264q18 -68 69 -219q35 -104 35 -197q0 -33 -2 -43q72 61 133 133l53 -69l-221 -187q-90 -190 -360 -190q-184 0 -266 61q-84 62 -84 207zM86 295q0 -174 174 -174q59 0 114.5 67.5t55.5 176.5 q0 45 -47 198q-47 152 -49 293q0 -2 -5 -18.5l-14.5 -50l-21.5 -72.5q-43 -143 -66 -193q68 -23 68 -114q0 -57 -39 -94.5t-96 -37.5q-37 1 -74 19z" />
<glyph unicode="t" horiz-adv-x="595" d="M-2 223q0 55 27 183q55 266 65 309q40 175 49 227h-67l16 82h68l61 283l303 41l-69 -324h122l-16 -82h-123q-139 -641 -139 -678q0 -78 102 -78q33 0 68 21q41 25 65 43l74 61l64 56h69l-69 -72q-78 -80 -101 -102q-37 -35 -100 -89q-59 -49 -115 -77q-53 -27 -100 -27 q-254 0 -254 223z" />
<glyph unicode="u" horiz-adv-x="1062" d="M-29 223q0 46 13 105l147 696h295l-147 -696q-8 -41 -9 -64q0 -78 103 -78q53 0 145 74q3 31 12 68l148 696h295l-148 -696q-8 -41 -8 -64q0 -78 103 -78q33 0 67 21q41 25 66 43q28 22 73 61l64 56h70q-2 -2 -6.5 -7.5t-19.5 -20.5l-42 -44q-61 -66 -102 -102 q-37 -35 -101 -89q-59 -49 -115 -77q-53 -27 -100 -27q-224 0 -252 172q-184 -172 -295 -172q-256 0 -256 223z" />
<glyph unicode="v" horiz-adv-x="849" d="M-27 223q0 63 11 105l147 696h295l-147 -696q-10 -51 -11 -76q0 -66 78 -66q94 0 174 123q86 131 123 277q41 158 41 272q-23 -8 -43 -8q-41 0 -63.5 35t-22.5 80q0 33 35 67q33 33 82 33q61 0 96 -49q35 -51 35 -135q0 -133 -33 -273q-35 -147 -98.5 -286.5 t-179.5 -231.5q-115 -90 -265 -90q-254 0 -254 223z" />
<glyph unicode="w" horiz-adv-x="1372" d="M-31 223q0 46 13 105l147 696h295l-148 -696q-8 -41 -8 -64q0 -78 103 -78q55 0 143 72q0 25 10 70l148 696h295l-148 -696q-10 -51 -10 -76q0 -66 78 -66q96 0 176 123q82 125 121 277q41 158 41 272q-23 -8 -43 -8q-41 0 -63.5 35t-22.5 80q0 33 34 67q33 33 82 33 q61 0 97 -49q35 -51 34 -135q0 -133 -32 -273q-35 -147 -99 -286q-63 -137 -182 -232q-115 -90 -262 -90q-219 0 -250 170q-188 -170 -293 -170q-256 0 -256 223z" />
<glyph unicode="x" horiz-adv-x="745" d="M-109 180q109 74 263 232l-134 612h295l105 -481q80 72 139 162q55 86 59 157q-33 -4 -34 -4q-96 0 -97 115q0 49 39 74q43 27 101 26q53 0 83.5 -49t30.5 -123q0 -160 -299 -465l27 -119q2 -12 20 -73q6 -23 31 -41q23 -16 70 -17q33 0 67 21q41 25 66 43l74 61 q45 41 63 56h70q-2 -2 -6 -7.5t-19.5 -20.5t-42.5 -44l-100 -102l-103 -89q-55 -47 -116 -77q-53 -27 -99 -27q-133 0 -180 57q-47 55 -90 260l-2 7l-111 -95l-131 -110z" />
<glyph unicode="y" horiz-adv-x="1042" d="M-29 223q0 46 13 105l147 696h295l-147 -696q-8 -41 -9 -64q0 -78 103 -78q58 0 153 80l162 758h295l-190 -897q223 106 313 303l-8 -162q-18 -88 -102.5 -141t-223.5 -94l-41 -197q-74 -348 -369 -348q-96 0 -169 63q-72 61 -72 158q0 66 26 119q25 49 80 86 q53 35 107 57q41 16 139 45l29 140q-168 -156 -275 -156q-256 0 -256 223zM233 -262q0 -25 25 -45q27 -23 57 -23q37 0 70 37t49 123l25 119q-115 -39 -168 -84q-58 -49 -58 -127z" />
<glyph unicode="z" horiz-adv-x="782" d="M-96 0l538 938q-127 4 -149 4q-113 0 -113 -45q15 0 25 -18q10 -20 10 -41q0 -123 -129 -123q-41 0 -70 35q-27 33 -26 84q0 84 61 137q63 53 178 53h551l-538 -938q127 -4 149 -4q113 0 113 45q-12 0 -24.5 16.5t-12.5 40.5q0 125 131 125q41 0 70 -35q27 -33 26 -84 q0 -84 -61 -137q-63 -53 -178 -53h-551z" />
<glyph unicode="{" horiz-adv-x="718" d="M61 -287q0 100 109 324q111 229 131 321q6 25 6 45q0 63 -84 64q-29 0 -65 -6l24 117q37 -6 64 -7q47 0 76 21q31 23 43 59q14 45 16 70q2 20 2 78t-6 166q-8 143 -8 159q0 84 28 176q29 90 109 164q78 72 190 72h88l-18 -102q-80 0 -115 -9q-39 -8 -71 -45 q-88 -100 -95 -282l13 -350q-6 -164 -82 -228q25 -28 24 -74q0 -92 -121 -342q-123 -256 -122 -358q0 -164 174 -164l-19 -92h-18q-106 0 -150 14q-49 16 -84 72q-39 57 -39 137z" />
<glyph unicode="|" horiz-adv-x="1087" d="M449 -512v2050h190v-2050h-190z" />
<glyph unicode="}" horiz-adv-x="718" d="M61 -510l19 102q80 0 115 9q39 8 71 45q92 104 94 282l-12 351q6 164 82 227q-25 28 -24 74q0 88 122 342q121 250 121 358q0 164 -174 164l19 92h18q106 0 150 -14q49 -16 83 -72q39 -59 39 -137q0 -100 -108 -324q-111 -229 -131 -321q-6 -25 -6 -45q0 -63 84 -64 q25 0 65 6l-24 -116q-37 6 -64 6q-47 0 -76 -21q-31 -23 -43 -59q-10 -35 -14 -70q-4 -41 -4 -78q0 -58 6 -166q8 -143 8 -159q0 -86 -28 -178q-27 -88 -107 -162q-78 -72 -192 -72h-89z" />
<glyph unicode="~" horiz-adv-x="880" d="M100 1192q102 201 342 201q82 0 181 -33q104 -35 157 -35q86 0 129 47l13 -2q-18 -77 -117 -141q-96 -63 -213 -64q-70 0 -180 37q-117 39 -164 39q-76 0 -135 -53z" />
<glyph unicode="&#xa1;" horiz-adv-x="446" d="M-125 -508l266 961h174l-145 -961h-295zM121 762q0 63 47 115q45 49 115 49q66 0 114.5 -49.5t48.5 -114.5q0 -70 -49 -115q-51 -47 -114 -47q-68 0 -115 47t-47 115z" />
<glyph unicode="&#xa2;" horiz-adv-x="823" d="M63 647q0 219 113 381t313 191l46 251h118l-55 -249q184 -12 184 -140q0 -33 -10 -67h-117q10 41 11 57q0 70 -76 70h-10l-156 -703q6 -2 31 -2q55 0 102 23q51 25 84 47q25 16 84 69q-45 -266 -332 -278l-78 -352h-55l64 354q-113 14 -187 106t-74 242zM279 653 q0 -125 75 -184l113 625q-84 -66 -135 -189q-53 -129 -53 -252z" />
<glyph unicode="&#xa3;" horiz-adv-x="950" d="M51 686q66 135 215 182l148 605l307 63l-164 -678q117 -39 174 -39q86 0 129 47l12 -2q-18 -76 -118 -141q-96 -63 -211 -64h-33l-115 -473q35 4 101 7q82 4 112 8q51 8 117 35q74 31 149 88q-14 -145 -73 -236q-57 -88 -139 -88h-605l176 733q-6 2 -34 2q-76 0 -136 -53 z" />
<glyph unicode="&#xa4;" horiz-adv-x="1024" d="M139 1008l78 73l115 -114q82 61 186 61q98 0 182 -59l115 114l74 -73l-113 -113q61 -82 62 -188q0 -100 -62 -187l113 -112l-74 -74l-113 113q-84 -59 -184 -60q-104 0 -188 62l-115 -115l-74 74l115 114q-59 84 -59 183q0 100 59 184zM313 709q0 -84 60 -144 q61 -61 145 -61q82 0 143.5 61.5t61.5 143.5q0 84 -61 145q-59 59 -144 59q-86 0 -145.5 -59t-59.5 -145z" />
<glyph unicode="&#xa5;" horiz-adv-x="968" d="M39 291l29 102h196l29 133h-203l29 103h196l-229 907h336l180 -739l307 739h135l-401 -907h268l-28 -103h-262l-29 -133h268l-29 -102h-262l-61 -291h-328l62 291h-203z" />
<glyph unicode="&#xa6;" horiz-adv-x="1087" d="M449 455h190v-967h-190v967zM449 616v922h190v-922h-190z" />
<glyph unicode="&#xa7;" horiz-adv-x="1107" d="M16 154q0 117 55.5 186.5t149.5 69.5q78 0 154 -103q-96 -8 -131 -47t-35 -123q0 -145 156 -145q98 0 137 53t39 158q0 84 -37 155q-35 66 -94 119l-109 96q-51 43 -90 111t-39 139q0 86 59 162q58 74 154 111q-10 57 -10 98q0 158 133 250q131 92 291 92q276 0 276 -197 q0 -74 -37 -118.5t-100 -44.5q-41 0 -74 32q33 20 53.5 59.5t20.5 82.5q0 51 -29 80q-31 31 -90 30q-78 0 -133 -67.5t-55 -137.5q0 -76 43 -139q45 -66 100 -110l119 -97q57 -49 100 -118.5t43 -155.5q0 -135 -63 -236q-63 -98 -174 -120v-9q0 -174 -119 -278 q-117 -102 -315 -103q-349 1 -349 265zM389 907q0 -43 53 -102q43 -49 121 -109q59 -47 133 -139q70 -88 90 -182q39 47 39 129q0 70 -30 125q-33 57 -76 98q-41 37 -98 82q-53 41 -106.5 88t-86.5 102q-39 -39 -39 -92z" />
<glyph unicode="&#xa8;" horiz-adv-x="800" d="M115 1298.5q0 51.5 36.5 88t88 36.5t88.5 -36.5t37 -88t-37 -88t-88.5 -36.5t-88 36.5t-36.5 88zM483 1298.5q0 51.5 37 88t88 36.5t88 -36.5t37 -88t-37 -88t-88 -36.5t-88 36.5t-37 88z" />
<glyph unicode="&#xa9;" horiz-adv-x="1200" d="M104 678q0 215 146 371q144 154 350 153q205 0 350.5 -151.5t145.5 -370.5q0 -215 -146 -371q-144 -154 -350 -153q-203 0 -350 153q-146 152 -146 369zM199 678q0 -184 118 -309q121 -127 287 -127q164 0 285 127q119 125 119 309t-119 309q-121 127 -285 127 q-166 0 -287 -127q-118 -125 -118 -309zM311 688q0 129 88 215q92 88 215 88l-2 -6q94 0 166 -53q68 -51 90 -135l-106 -41q-8 8 -8 24q0 6 -1 13l-1 6l-15 30q-8 16 -45 37q-33 18 -78 19q-80 0 -135 -49.5t-55 -137.5t57 -155q55 -63 137 -64q104 0 154 92l90 -59 q-92 -139 -252 -139q-121 0 -211 94q-88 90 -88 221z" />
<glyph unicode="&#xaa;" horiz-adv-x="704" d="M88 1096q0 164 76 293q74 125 235 124q39 0 80 -28l6 31h170l-86 -377q0 -6 -2 -11q-4 -8 -4 -14v-12q0 -41 43 -41q14 0 31 4q-35 -102 -123 -102q-96 0 -119 84q-72 -90 -162 -91q-78 0 -112 41q-33 40 -33 99zM248 1126q0 -78 69 -77q51 0 82 90l68 293q-20 20 -59 20 q-61 0 -110.5 -104.5t-49.5 -221.5z" />
<glyph unicode="&#xab;" horiz-adv-x="1204" d="M41 487l18 84l629 308l-20 -113l-494 -246l397 -196l-24 -117zM471 487l18 84l629 308l-20 -113l-494 -246l397 -196l-24 -117z" />
<glyph unicode="&#xac;" horiz-adv-x="907" d="M39 455l37 161h741l-104 -512h-232l72 351h-514z" />
<glyph unicode="&#xad;" horiz-adv-x="591" d="M39 455l37 161h409l-34 -161h-412z" />
<glyph unicode="&#xae;" horiz-adv-x="1130" d="M70 684q0 215 145 371q144 154 350 153q205 0 350.5 -151.5t145.5 -370.5q0 -215 -146 -371q-144 -154 -350 -153q-203 0 -350 153q-145 152 -145 369zM164 684q0 -184 119 -309q121 -127 286 -127q164 0 285 127q119 125 119 309t-119 309q-121 127 -285 127 q-166 0 -286 -127q-119 -125 -119 -309zM360 393l2 596h193q113 0 178 -45q68 -46 68 -129q0 -55 -33 -96q-35 -43 -88 -60l133 -256l-96 -14l-127 256h-135v-252h-95zM455 723h106q145 0 146 90q0 92 -150 92h-102v-182z" />
<glyph unicode="&#xb0;" horiz-adv-x="641" d="M76 999q0 184 92 311.5t240 127.5q168 0 167 -232q0 -152 -83 -297q-82 -143 -220 -143q-113 0 -155 57q-41 55 -41 176zM223 975q0 -133 56 -133q78 0 127 116q47 113 47 279q0 129 -52 129q-53 0 -108 -84q-57 -84 -66 -219q-4 -65 -4 -88z" />
<glyph unicode="&#xb1;" horiz-adv-x="1089" d="M63 139l37 162h752l-35 -162h-754zM170 633l49 229h262l56 250h231l-55 -250h260l-47 -229h-262l-56 -252h-231l55 252h-262z" />
<glyph unicode="&#xb2;" horiz-adv-x="612" d="M6 739q0 53 29 111q27 53 71 98q70 66 97 94l94 99q45 47 72 110q29 68 28 133q0 39 -22 66q-23 25 -49 25q-55 0 -76 -20.5t-21 -68.5q0 -63 45 -75q-45 -39 -92 -39q-37 0 -61 26q-23 25 -23 74q0 68 59.5 115t186.5 47q225 0 225 -176q0 -70 -34 -133 q-37 -68 -86 -111q-37 -33 -111 -90l-111 -86q-53 -45 -82 -86q31 0 95 -8q39 -6 120 -10q53 0 93 16q41 16 86 59v-78q0 -12 -9 -57q-6 -35 -22 -47q-18 -14 -43 -22q-31 -10 -68 -11q-70 0 -149.5 20.5t-143.5 20.5q-12 0 -30 -6q-16 -4 -37 -14q-14 -6 -27 -13 q-4 33 -4 37z" />
<glyph unicode="&#xb3;" horiz-adv-x="645" d="M27 879q0 82 36.5 125t104.5 43q82 0 96 -56q-104 -8 -104 -131q0 -53 26.5 -71.5t77.5 -18.5q61 0 105 59q41 55 41 134q0 66 -37 124q-35 55 -117 82q96 23 149.5 88.5t53.5 131.5q0 41 -20.5 63.5t-55.5 22.5q-106 0 -107 -89q0 -63 46 -75q-45 -39 -93 -39 q-37 0 -61 26q-23 25 -23 74q0 63 66 113q65 49 190 49q96 0 154 -47q55 -45 55 -115q0 -127 -161 -205q147 -43 147 -180q0 -109 -88 -196q-90 -90 -217 -91q-264 1 -264 179z" />
<glyph unicode="&#xb4;" horiz-adv-x="409" d="M170 1149l186 387h215l-247 -387h-154z" />
<glyph unicode="&#xb5;" horiz-adv-x="1062" d="M-158 -342l289 1366h295l-147 -696q-8 -41 -9 -64q0 -78 103 -78q53 0 145 74q3 31 12 68l148 696h295l-148 -696q-8 -41 -8 -64q0 -78 103 -78q33 0 67 21q41 25 66 43q28 22 73 61l64 56h70q-2 -2 -6.5 -7.5t-19.5 -20.5l-42 -44q-61 -66 -102 -102q-37 -35 -101 -89 q-59 -49 -115 -77q-53 -27 -100 -27q-224 0 -252 172q-184 -172 -295 -172h-18l-57 -268z" />
<glyph unicode="&#xb6;" horiz-adv-x="1107" d="M147 1008q0 211 137.5 368.5t374.5 157.5q170 0 273 -82q106 -84 106 -256q0 -55 -16 -147l-260 -1215h-193l166 778q-45 -14 -88 -22l-158 -756h-192l158 756q-145 27 -228 147q-80 117 -80 271zM670 694h12q45 0 72 8l98 465q12 57 12 101q0 86 -47 129z" />
<glyph unicode="&#xb7;" horiz-adv-x="886" d="M246 547q0 82 57 139q59 59 139 59t139.5 -59t59.5 -139t-59 -139q-57 -57 -139.5 -57.5t-139.5 57t-57 139.5z" />
<glyph unicode="&#xb8;" horiz-adv-x="1703" d="M150 -389q37 66 81.5 65.5t85.5 -28.5q39 -27 66 -27q25 0 43 27q18 29 18 59.5t-18 52.5q-18 20 -61 21q-51 0 -107 -25l109 303l71 -47l-59 -147q70 16 108 16q127 0 127 -102q0 -100 -75 -164q-74 -61 -170 -61q-110 0 -219 57z" />
<glyph unicode="&#xb9;" horiz-adv-x="442" d="M45 707l158 690h-113l14 51q147 0 302 86l-189 -827h-172z" />
<glyph unicode="&#xba;" horiz-adv-x="671" d="M86 1137q0 190 90 290q89 98 221 99q47 0 78 -15q35 -16 35 -34q0 -35 -53 -54q-14 39 -54 39q-51 0 -92 -63q-37 -55 -53 -131q-14 -63 -14 -121q0 -84 84 -84q46 0 80 67q33 68 43 154q-33 6 -33 45q0 27 26 57q25 27 54 27q39 0 39 -29v-10q18 12 67 66l12 -23 q-28 -89 -79 -117q-10 -164 -91 -253q-82 -92 -174 -93q-95 0 -141 43q-45 44 -45 140z" />
<glyph unicode="&#xbb;" horiz-adv-x="1198" d="M31 207l28 117l492 196l-397 246l18 113l504 -308l-23 -110zM485 207l29 117l492 196l-398 246l19 113l503 -308l-22 -110z" />
<glyph unicode="&#xbc;" horiz-adv-x="1409" d="M143 461l158 690h-113l15 51q147 0 301 86l-189 -827h-172zM285 -338l540 1874h148l-541 -1874h-147zM766 307q20 55 59 129q46 89 80 172q33 80 33 156q0 41 -8 67q53 0 94 -28q39 -27 39 -76q0 -66 -27 -121q-28 -58 -80 -123q-51 -63 -67 -96h184l96 422l177 22 l-103 -444h78l-25 -80h-71l-70 -305h-170l70 305h-289z" />
<glyph unicode="&#xbd;" horiz-adv-x="1380" d="M143 461l158 690h-113l15 51q147 0 301 86l-189 -827h-172zM274 -338l541 1874h148l-541 -1874h-148zM750 43q0 68 38 131q39 61 99 119l117 110q58 55 98 129q39 72 39 156q0 37 -22.5 63.5t-49.5 26.5q-57 0 -76 -22q-20 -25 -20 -66q0 -63 45 -76q-45 -39 -92 -39 q-35 0 -60 27q-25 28 -24 74q0 66 61 115q59 47 184 47q225 0 226 -176q0 -72 -33 -132q-35 -63 -88 -110q-37 -33 -111 -90l-110 -88q-59 -49 -82 -86q33 0 96 -9q41 -6 119 -10q57 0 92 15q37 15 86 61q0 -20 -1 -46t-1 -32q0 -25 -6 -57q-6 -35 -23 -47q-18 -14 -43 -23 q-31 -10 -67 -10q-70 0 -150 20.5t-143 20.5q-10 0 -29 -6q-25 -8 -39 -14.5l-26 -12.5q-4 33 -4 37z" />
<glyph unicode="&#xbe;" horiz-adv-x="1675" d="M125 633q0 82 37 125t104 43q82 0 96 -56q-104 -8 -104 -131q0 -53 26.5 -71.5t77.5 -18.5q61 0 105 58q41 55 41 135q0 63 -39 125q-35 57 -115 82q96 23 149.5 88t53.5 131q0 41 -20.5 63.5t-55.5 22.5q-106 0 -106 -88q0 -63 45 -76q-45 -39 -92 -39q-35 0 -60 27 q-25 28 -24 73q0 63 65 113q65 49 191 49q96 0 153 -47q55 -45 56 -115q0 -131 -162 -204q147 -43 147 -181q0 -106 -90 -196t-215 -90q-264 0 -264 178zM522 -338l541 1874h147l-540 -1874h-148zM1010 307q20 55 59 129q46 89 80 172q33 80 33 156q0 41 -8 67q53 0 94 -28 q39 -27 39 -76q0 -66 -27 -121q-28 -58 -80 -123q-51 -63 -67 -96h184l96 422l176 22l-102 -444h78l-25 -80h-72l-69 -305h-170l69 305h-288z" />
<glyph unicode="&#xbf;" horiz-adv-x="897" d="M25 -262q0 100 38 188q35 80 99 140q53 49 124.5 108t131.5 123q68 74 100 156h135q0 -80 -37 -154q-33 -68 -94 -131l-110 -119q-53 -59 -93 -139q-39 -82 -38 -164q0 -70 32 -106q31 -35 80 -35q61 0 112.5 49t51.5 121q0 39 -20 84q-20 43 -58 51q53 86 150 86 q63 0 108 -45q47 -47 47 -127q0 -123 -110 -227q-109 -102 -320 -103q-329 0 -329 244zM473 761.5q0 67.5 47 119.5q45 47 115 47q66 0 115 -49.5t49 -116.5q0 -70 -49 -115q-51 -47 -115 -47q-68 0 -115 47t-47 114.5z" />
<glyph unicode="&#xc0;" horiz-adv-x="1366" d="M18 696q0 92 121 164t279 72q53 0 121 -6q166 266 356 440q186 172 358 172q90 0 164 -31l-321 -1507h-295l157 743q-150 63 -276 74q-121 -262 -190 -512q-74 -260 -74 -422q0 -27 4 -59q4 -27 8 -31q2 -2 5 -6t5 -6q6 -6 6 -12q-59 4 -84 6q-33 4 -71 14q-41 10 -64 37 q-18 20 -37 65q-18 43 -18 107q0 131 84 360q86 236 217 459q-203 -16 -240 -106q8 0 17 -21q10 -25 10 -43q0 -37 -31 -57q-33 -23 -94 -23q-49 0 -84 31q-33 30 -33 98zM723 903q139 -25 254 -69l119 557q-178 -97 -373 -488zM997 2048h215l60 -387h-154z" />
<glyph unicode="&#xc1;" horiz-adv-x="1366" d="M18 696q0 92 121 164t279 72q53 0 121 -6q166 266 356 440q186 172 358 172q90 0 164 -31l-321 -1507h-295l157 743q-150 63 -276 74q-121 -262 -190 -512q-74 -260 -74 -422q0 -27 4 -59q4 -27 8 -31q2 -2 5 -6t5 -6q6 -6 6 -12q-59 4 -84 6q-33 4 -71 14q-41 10 -64 37 q-18 20 -37 65q-18 43 -18 107q0 131 84 360q86 236 217 459q-203 -16 -240 -106q8 0 17 -21q10 -25 10 -43q0 -37 -31 -57q-33 -23 -94 -23q-49 0 -84 31q-33 30 -33 98zM723 903q139 -25 254 -69l119 557q-178 -97 -373 -488zM1036 1661l187 387h215l-248 -387h-154z" />
<glyph unicode="&#xc2;" horiz-adv-x="1366" d="M18 696q0 92 121 164t279 72q53 0 121 -6q166 266 356 440q186 172 358 172q90 0 164 -31l-321 -1507h-295l157 743q-150 63 -276 74q-121 -262 -190 -512q-74 -260 -74 -422q0 -27 4 -59q4 -27 8 -31q2 -2 5 -6t5 -6q6 -6 6 -12q-59 4 -84 6q-33 4 -71 14q-41 10 -64 37 q-18 20 -37 65q-18 43 -18 107q0 131 84 360q86 236 217 459q-203 -16 -240 -106q8 0 17 -21q10 -25 10 -43q0 -37 -31 -57q-33 -23 -94 -23q-49 0 -84 31q-33 30 -33 98zM723 903q139 -25 254 -69l119 557q-178 -97 -373 -488zM854 1661l434 387h43l123 -387h-65l-123 164 l-322 -164h-90z" />
<glyph unicode="&#xc3;" horiz-adv-x="1366" d="M18 696q0 92 121 164t279 72q53 0 121 -6q166 266 356 440q186 172 358 172q90 0 164 -31l-321 -1507h-295l157 743q-150 63 -276 74q-121 -262 -190 -512q-74 -260 -74 -422q0 -27 4 -59q4 -27 8 -31q2 -2 5 -6t5 -6q6 -6 6 -12q-59 4 -84 6q-33 4 -71 14q-41 10 -64 37 q-18 20 -37 65q-18 43 -18 107q0 131 84 360q86 236 217 459q-203 -16 -240 -106q8 0 17 -21q10 -25 10 -43q0 -37 -31 -57q-33 -23 -94 -23q-49 0 -84 31q-33 30 -33 98zM723 903q139 -25 254 -69l119 557q-178 -97 -373 -488zM778 1704q102 201 342 201q82 0 180 -33 q104 -35 158 -35q86 0 129 47l12 -2q-18 -76 -118 -141q-96 -63 -211 -64q-70 0 -180 37q-117 39 -164 39q-76 0 -135 -53z" />
<glyph unicode="&#xc4;" horiz-adv-x="1366" d="M18 696q0 92 121 164t279 72q53 0 121 -6q166 266 356 440q186 172 358 172q90 0 164 -31l-321 -1507h-295l157 743q-150 63 -276 74q-121 -262 -190 -512q-74 -260 -74 -422q0 -27 4 -59q4 -27 8 -31q2 -2 5 -6t5 -6q6 -6 6 -12q-59 4 -84 6q-33 4 -71 14q-41 10 -64 37 q-18 20 -37 65q-18 43 -18 107q0 131 84 360q86 236 217 459q-203 -16 -240 -106q8 0 17 -21q10 -25 10 -43q0 -37 -31 -57q-33 -23 -94 -23q-49 0 -84 31q-33 30 -33 98zM723 903q139 -25 254 -69l119 557q-178 -97 -373 -488zM881 1810.5q0 51.5 36.5 88t88 36.5t88 -36.5 t36.5 -88t-36.5 -88t-88 -36.5t-88 36.5t-36.5 88zM1249 1810.5q0 51.5 37 88t88 36.5t88 -36.5t37 -88t-37 -88t-88 -36.5t-88 36.5t-37 88z" />
<glyph unicode="&#xc5;" horiz-adv-x="1366" d="M18 696q0 92 121 164t279 72q53 0 121 -6q166 266 356 440q186 172 358 172q90 0 164 -31l-321 -1507h-295l157 743q-150 63 -276 74q-121 -262 -190 -512q-74 -260 -74 -422q0 -27 4 -59q4 -27 8 -31q2 -2 5 -6t5 -6q6 -6 6 -12q-59 4 -84 6q-33 4 -71 14q-41 10 -64 37 q-18 20 -37 65q-18 43 -18 107q0 131 84 360q86 236 217 459q-203 -16 -240 -106q8 0 17 -21q10 -25 10 -43q0 -37 -31 -57q-33 -23 -94 -23q-49 0 -84 31q-33 30 -33 98zM723 903q139 -25 254 -69l119 557q-178 -97 -373 -488zM1098 1786q0 68 45 127t129 59q72 0 110 -45 q37 -43 37 -112q0 -72 -45 -123q-43 -49 -133 -50q-63 0 -102 41q-41 46 -41 103zM1180 1790q0 -76 69 -76q94 0 94 94q0 96 -67 97q-47 0 -72 -35q-24 -34 -24 -80z" />
<glyph unicode="&#xc6;" horiz-adv-x="1562" d="M18 696q0 92 121 164t279 72q53 0 121 -6q166 266 356 440q186 172 358 172q57 0 172 -20.5t197 -20.5q121 0 240 39q-2 -2 -14.5 -45t-18.5 -55q-12 -25 -25 -45q-18 -31 -37 -43q-16 -12 -53 -25q-34 -12 -74 -12q-18 0 -51 4l-41 6q-31 6 -43 10l-37 12q-2 0 -15 7.5 t-26 11.5q-8 4 -17 7t-14 5t-7 2l-111 -518h317l-41 -151h-309l-104 -490h458l-43 -217h-755l157 743q-150 63 -276 74q-121 -262 -190 -512q-74 -260 -74 -422q0 -27 4 -59q4 -27 8 -31q2 -2 5 -6t5 -6q6 -6 6 -12q-59 4 -84 6q-33 4 -71 14q-41 10 -64 37q-18 20 -37 65 q-18 43 -18 107q0 131 84 360q86 236 217 459q-203 -16 -240 -106q8 0 17 -21q10 -25 10 -43q0 -37 -31 -57q-33 -23 -94 -23q-49 0 -84 31q-33 30 -33 98zM723 903q139 -25 254 -69l119 557q-178 -97 -373 -488z" />
<glyph unicode="&#xc7;" horiz-adv-x="1015" d="M49 510q0 143 19 278q18 137 67 275q51 145 125 242q80 106 199 168q121 63 280 63q154 0 256 -68q100 -68 101 -206q0 -188 -144 -189q-74 0 -116 53q37 10 63 68q27 55 27 100q0 25 -6 54q-6 31 -41 61.5t-95 30.5q-119 0 -217 -147.5t-147 -348.5q-49 -199 -49 -389 q0 -211 55 -297t215 -86q125 0 225 49q102 49 158 148l47 -21q-121 -334 -516 -358l-49 -125q70 16 108 16q127 0 127 -102q0 -100 -75 -164q-74 -61 -170 -61q-111 0 -220 57q37 66 82 65.5t86 -28.5q39 -27 66 -27q25 0 43 27q18 29 18 59q0 29 -20 53q-18 20 -59 21 q-51 0 -107 -25l82 234q-72 2 -152 30q-66 23 -131 82q-61 55 -98 160t-37 248z" />
<glyph unicode="&#xc8;" horiz-adv-x="937" d="M23 401q0 158 98 287t272 166q-203 111 -203 311q0 150 123 260.5t332 110.5q162 0 268 -68q109 -68 109 -206q0 -188 -143 -189q-70 0 -117 53q37 10 63 68q27 55 27 100q0 152 -135 152q-111 0 -180 -74q-70 -72 -70 -178q0 -100 65 -186q70 -92 205 -152 q-184 -78 -268 -186q-88 -113 -88 -226q0 -115 70 -192q70 -80 170 -80q115 0 190 47q74 45 133 150l47 -21q-133 -360 -545 -360q-205 0 -313 121q-110 122 -110 292zM537 2048h215l59 -387h-154z" />
<glyph unicode="&#xc9;" horiz-adv-x="937" d="M23 401q0 158 98 287t272 166q-203 111 -203 311q0 150 123 260.5t332 110.5q162 0 268 -68q109 -68 109 -206q0 -188 -143 -189q-70 0 -117 53q37 10 63 68q27 55 27 100q0 152 -135 152q-111 0 -180 -74q-70 -72 -70 -178q0 -100 65 -186q70 -92 205 -152 q-184 -78 -268 -186q-88 -113 -88 -226q0 -115 70 -192q70 -80 170 -80q115 0 190 47q74 45 133 150l47 -21q-133 -360 -545 -360q-205 0 -313 121q-110 122 -110 292zM596 1661l186 387h215l-247 -387h-154z" />
<glyph unicode="&#xca;" horiz-adv-x="937" d="M23 401q0 158 98 287t272 166q-203 111 -203 311q0 150 123 260.5t332 110.5q162 0 268 -68q109 -68 109 -206q0 -188 -143 -189q-70 0 -117 53q37 10 63 68q27 55 27 100q0 152 -135 152q-111 0 -180 -74q-70 -72 -70 -178q0 -100 65 -186q70 -92 205 -152 q-184 -78 -268 -186q-88 -113 -88 -226q0 -115 70 -192q70 -80 170 -80q115 0 190 47q74 45 133 150l47 -21q-133 -360 -545 -360q-205 0 -313 121q-110 122 -110 292zM416 1661l434 387h43l123 -387h-66l-123 164l-321 -164h-90z" />
<glyph unicode="&#xcb;" horiz-adv-x="937" d="M23 401q0 158 98 287t272 166q-203 111 -203 311q0 150 123 260.5t332 110.5q162 0 268 -68q109 -68 109 -206q0 -188 -143 -189q-70 0 -117 53q37 10 63 68q27 55 27 100q0 152 -135 152q-111 0 -180 -74q-70 -72 -70 -178q0 -100 65 -186q70 -92 205 -152 q-184 -78 -268 -186q-88 -113 -88 -226q0 -115 70 -192q70 -80 170 -80q115 0 190 47q74 45 133 150l47 -21q-133 -360 -545 -360q-205 0 -313 121q-110 122 -110 292zM385 1810.5q0 51.5 37 88t88 36.5t88 -36.5t37 -88t-37 -88t-88 -36.5t-88 36.5t-37 88zM754 1810.5 q0 51.5 36.5 88t88 36.5t88.5 -36.5t37 -88t-37 -88t-88.5 -36.5t-88 36.5t-36.5 88z" />
<glyph unicode="&#xcc;" horiz-adv-x="768" d="M12 1004q0 201 229.5 366.5t489.5 165.5q12 0 82 -4l-326 -1532h-294l296 1391q-135 -59 -210 -170q-76 -113 -76 -277q0 -45 6 -76q6 -33 14 -45q8 -14 8 -18q-109 0 -165 47q-54 46 -54 152zM471 2048h215l59 -387h-153z" />
<glyph unicode="&#xcd;" horiz-adv-x="768" d="M12 1004q0 201 229.5 366.5t489.5 165.5q12 0 82 -4l-326 -1532h-294l296 1391q-135 -59 -210 -170q-76 -113 -76 -277q0 -45 6 -76q6 -33 14 -45q8 -14 8 -18q-109 0 -165 47q-54 46 -54 152zM616 1661l187 387h215l-248 -387h-154z" />
<glyph unicode="&#xce;" horiz-adv-x="768" d="M12 1004q0 201 229.5 366.5t489.5 165.5q12 0 82 -4l-326 -1532h-294l296 1391q-135 -59 -210 -170q-76 -113 -76 -277q0 -45 6 -76q6 -33 14 -45q8 -14 8 -18q-109 0 -165 47q-54 46 -54 152zM309 1661l434 387h43l123 -387h-65l-123 164l-322 -164h-90z" />
<glyph unicode="&#xcf;" horiz-adv-x="768" d="M12 1004q0 201 229.5 366.5t489.5 165.5q12 0 82 -4l-326 -1532h-294l296 1391q-135 -59 -210 -170q-76 -113 -76 -277q0 -45 6 -76q6 -33 14 -45q8 -14 8 -18q-109 0 -165 47q-54 46 -54 152zM342 1810.5q0 51.5 37 88t88 36.5t88 -36.5t37 -88t-37 -88t-88 -36.5 t-88 36.5t-37 88zM711 1810.5q0 51.5 36.5 88t88 36.5t88.5 -36.5t37 -88t-37 -88t-88.5 -36.5t-88 36.5t-36.5 88z" />
<glyph unicode="&#xd0;" horiz-adv-x="1355" d="M12 1004q0 201 229.5 366.5t489.5 165.5q590 0 590 -553q0 -256 -78 -494q-76 -229 -211 -374q-131 -141 -278 -142q-123 0 -250 109l-17 -82h-294l151 707h-80l41 151h72l94 445l303 40l-104 -485h161l-40 -151h-154l-109 -512q57 -41 117 -41q117 0 209 141 q90 139 137 342q47 205 47 403q0 211 -57 306q-59 96 -225 96q-250 0 -401.5 -133t-151.5 -365q0 -45 6 -76q6 -33 14 -45q8 -14 8 -18q-109 0 -165 47q-54 46 -54 152z" />
<glyph unicode="&#xd1;" horiz-adv-x="1435" d="M12 1004q0 201 229.5 366.5t489.5 165.5q125 0 156 -76q31 -74 31 -305q0 -152 -11 -348q-12 -238 -12 -334q0 -160 20 -223l273 1282h295l-326 -1532h-295q-119 0 -119 418q0 98 7 321q8 299 8 332q0 104 -4 182l-267 -1253h-294l296 1393q-139 -59 -213 -172 q-74 -114 -73 -277q0 -45 6 -76q6 -33 14 -45q8 -14 8 -18q-109 0 -165 47q-54 46 -54 152zM594 1704q102 201 342 201q82 0 180 -33q104 -35 158 -35q86 0 129 47l12 -2q-18 -77 -117 -141q-96 -63 -213 -64q-70 0 -180 37q-117 39 -164 39q-76 0 -135 -53z" />
<glyph unicode="&#xd2;" d="M12 1004q0 201 229.5 366.5t489.5 165.5q295 0 428 -139.5t133 -415.5q0 -158 -45 -326q-47 -174 -123 -323q-78 -152 -194 -250q-119 -100 -250 -100q-205 0 -313 108q-106 106 -107 354q0 154 27 306q29 166 78 294q51 137 139 228q86 88 194 88q37 0 97 -17 q-276 -365 -277 -858q0 -139 41 -237q39 -94 121 -94q86 0 174 137q90 139 145.5 342t55.5 391q0 106 -11 162q-14 74 -40 129q-33 63 -93 94q-66 33 -155 33q-250 0 -401.5 -133t-151.5 -365q0 -45 6 -76q6 -33 14 -45q8 -14 8 -18q-109 0 -165 47q-54 46 -54 152z M700 2048h215l60 -387h-154z" />
<glyph unicode="&#xd3;" d="M12 1004q0 201 229.5 366.5t489.5 165.5q295 0 428 -139.5t133 -415.5q0 -158 -45 -326q-47 -174 -123 -323q-78 -152 -194 -250q-119 -100 -250 -100q-205 0 -313 108q-106 106 -107 354q0 154 27 306q29 166 78 294q51 137 139 228q86 88 194 88q37 0 97 -17 q-276 -365 -277 -858q0 -139 41 -237q39 -94 121 -94q86 0 174 137q90 139 145.5 342t55.5 391q0 106 -11 162q-14 74 -40 129q-33 63 -93 94q-66 33 -155 33q-250 0 -401.5 -133t-151.5 -365q0 -45 6 -76q6 -33 14 -45q8 -14 8 -18q-109 0 -165 47q-54 46 -54 152z M883 1661l186 387h215l-248 -387h-153z" />
<glyph unicode="&#xd4;" d="M12 1004q0 201 229.5 366.5t489.5 165.5q295 0 428 -139.5t133 -415.5q0 -158 -45 -326q-47 -174 -123 -323q-78 -152 -194 -250q-119 -100 -250 -100q-205 0 -313 108q-106 106 -107 354q0 154 27 306q29 166 78 294q51 137 139 228q86 88 194 88q37 0 97 -17 q-276 -365 -277 -858q0 -139 41 -237q39 -94 121 -94q86 0 174 137q90 139 145.5 342t55.5 391q0 106 -11 162q-14 74 -40 129q-33 63 -93 94q-66 33 -155 33q-250 0 -401.5 -133t-151.5 -365q0 -45 6 -76q6 -33 14 -45q8 -14 8 -18q-109 0 -165 47q-54 46 -54 152z M618 1661l435 387h43l123 -387h-66l-123 164l-321 -164h-91z" />
<glyph unicode="&#xd5;" d="M12 1004q0 201 229.5 366.5t489.5 165.5q295 0 428 -139.5t133 -415.5q0 -158 -45 -326q-47 -174 -123 -323q-78 -152 -194 -250q-119 -100 -250 -100q-205 0 -313 108q-106 106 -107 354q0 154 27 306q29 166 78 294q51 137 139 228q86 88 194 88q37 0 97 -17 q-276 -365 -277 -858q0 -139 41 -237q39 -94 121 -94q86 0 174 137q90 139 145.5 342t55.5 391q0 106 -11 162q-14 74 -40 129q-33 63 -93 94q-66 33 -155 33q-250 0 -401.5 -133t-151.5 -365q0 -45 6 -76q6 -33 14 -45q8 -14 8 -18q-109 0 -165 47q-54 46 -54 152z M487 1704q102 201 342 201q82 0 181 -33q104 -35 157 -35q86 0 129 47l13 -2q-18 -77 -117 -141q-96 -63 -213 -64q-70 0 -180 37q-117 39 -164 39q-76 0 -135 -53z" />
<glyph unicode="&#xd6;" d="M12 1004q0 201 229.5 366.5t489.5 165.5q295 0 428 -139.5t133 -415.5q0 -158 -45 -326q-47 -174 -123 -323q-78 -152 -194 -250q-119 -100 -250 -100q-205 0 -313 108q-106 106 -107 354q0 154 27 306q29 166 78 294q51 137 139 228q86 88 194 88q37 0 97 -17 q-276 -365 -277 -858q0 -139 41 -237q39 -94 121 -94q86 0 174 137q90 139 145.5 342t55.5 391q0 106 -11 162q-14 74 -40 129q-33 63 -93 94q-66 33 -155 33q-250 0 -401.5 -133t-151.5 -365q0 -45 6 -76q6 -33 14 -45q8 -14 8 -18q-109 0 -165 47q-54 46 -54 152z M631 1810.5q0 51.5 37 88t88 36.5t88 -36.5t37 -88t-37 -88t-88 -36.5t-88 36.5t-37 88zM999 1810.5q0 51.5 37 88t88.5 36.5t88 -36.5t36.5 -88t-36.5 -88t-88 -36.5t-88.5 36.5t-37 88z" />
<glyph unicode="&#xd7;" horiz-adv-x="1052" d="M201 338l194 194l-194 195l133 131l192 -194l197 196l131 -133l-195 -195l195 -194l-131 -133l-197 194l-192 -192z" />
<glyph unicode="&#xd8;" d="M12 897q0 201 229.5 367t489.5 166q76 0 143 -13l25 119h107l-31 -143q317 -111 317 -547q0 -211 -75 -414q-76 -199 -218 -323q-145 -127 -323 -127l-105 -494h-106l104 498q-156 8 -233 84q-76 74 -76 270q0 154 27 305q29 164 78 293q53 141 139 227q88 88 194 88 q37 0 97 -16q-276 -365 -277 -858q0 -176 90 -213l246 1155q-49 14 -98 14q-250 0 -401.5 -133t-151.5 -364q0 -45 6 -76q6 -33 14 -45q8 -14 8 -19q-109 0 -165 47q-54 46 -54 152zM713 156q127 31 235 245q106 213 107 488q0 281 -107 379z" />
<glyph unicode="&#xd9;" horiz-adv-x="1386" d="M12 1004q0 201 229.5 366.5t489.5 165.5q113 0 154 -10q-139 -182 -252 -494q-115 -315 -115 -547q0 -139 41 -237q39 -94 121 -94q109 0 199 157l262 1221h293l-326 -1532h-295l23 106q-115 -104 -199 -104q-186 0 -282.5 100.5t-96.5 333.5q0 240 86 539 q84 293 240 448q-176 -43 -279 -166q-102 -125 -102 -313q0 -45 6 -76q6 -33 14 -45q8 -14 8 -18q-109 0 -165 47q-54 46 -54 152zM803 2048h215l59 -387h-153z" />
<glyph unicode="&#xda;" horiz-adv-x="1386" d="M12 1004q0 201 229.5 366.5t489.5 165.5q113 0 154 -10q-139 -182 -252 -494q-115 -315 -115 -547q0 -139 41 -237q39 -94 121 -94q109 0 199 157l262 1221h293l-326 -1532h-295l23 106q-115 -104 -199 -104q-186 0 -282.5 100.5t-96.5 333.5q0 240 86 539 q84 293 240 448q-176 -43 -279 -166q-102 -125 -102 -313q0 -45 6 -76q6 -33 14 -45q8 -14 8 -18q-109 0 -165 47q-54 46 -54 152zM883 1661l186 387h215l-248 -387h-153z" />
<glyph unicode="&#xdb;" horiz-adv-x="1386" d="M12 1004q0 201 229.5 366.5t489.5 165.5q113 0 154 -10q-139 -182 -252 -494q-115 -315 -115 -547q0 -139 41 -237q39 -94 121 -94q109 0 199 157l262 1221h293l-326 -1532h-295l23 106q-115 -104 -199 -104q-186 0 -282.5 100.5t-96.5 333.5q0 240 86 539 q84 293 240 448q-176 -43 -279 -166q-102 -125 -102 -313q0 -45 6 -76q6 -33 14 -45q8 -14 8 -18q-109 0 -165 47q-54 46 -54 152zM700 1661l435 387h43l122 -387h-65l-123 164l-321 -164h-91z" />
<glyph unicode="&#xdc;" horiz-adv-x="1386" d="M12 1004q0 201 229.5 366.5t489.5 165.5q113 0 154 -10q-139 -182 -252 -494q-115 -315 -115 -547q0 -139 41 -237q39 -94 121 -94q109 0 199 157l262 1221h293l-326 -1532h-295l23 106q-115 -104 -199 -104q-186 0 -282.5 100.5t-96.5 333.5q0 240 86 539 q84 293 240 448q-176 -43 -279 -166q-102 -125 -102 -313q0 -45 6 -76q6 -33 14 -45q8 -14 8 -18q-109 0 -165 47q-54 46 -54 152zM774 1810.5q0 51.5 37 88t88 36.5t88 -36.5t37 -88t-37 -88t-88 -36.5t-88 36.5t-37 88zM1143 1810.5q0 51.5 37 88t88 36.5t88 -36.5t37 -88 t-37 -88t-88 -36.5t-88 36.5t-37 88z" />
<glyph unicode="&#xdd;" horiz-adv-x="1267" d="M12 1004q0 201 229.5 366.5t489.5 165.5q12 0 82 -4l178 -733l303 727h136l-398 -895l-135 -631h-328l136 631l-197 768q-145 -53 -225 -170t-80 -285q0 -45 6 -76q6 -33 14 -45q8 -14 8 -18q-109 0 -165 47q-54 46 -54 152zM956 1661l187 387h215l-248 -387h-154z" />
<glyph unicode="&#xde;" horiz-adv-x="1191" d="M12 778q0 145 129 280.5t320 203.5l51 233l303 41l-49 -227q218 -9 332 -123q115 -115 114 -279q0 -211 -165 -379q-166 -170 -424 -170h-60l-76 -358h-294l245 1151q-236 -125 -235 -432q0 -47 6 -78q6 -29 14 -43t8 -18q-109 0 -165 47q-54 45 -54 151zM575 418 q2 2 6.5 7t8.5 9h18q154 0 266.5 162t112.5 342q0 119 -59 197q-57 76 -183 82z" />
<glyph unicode="&#xdf;" horiz-adv-x="919" d="M-174 -512l340 1597q74 348 373 349q135 0 209 -76q72 -74 71 -184q0 -88 -51 -174.5t-137 -125.5q199 -68 198 -290q0 -35 -10 -92q-29 -141 -71 -250q-39 -100 -88.5 -151.5t-100.5 -70.5q-57 -20 -119 -20q-10 0 -67 4l26 121q41 8 76 33q29 20 64 98q37 84 63 219 q20 90 21 152q0 74 -33 114.5t-115 63.5l37 119q170 72 170 227q0 58 -18 80q-18 23 -59.5 22.5t-84.5 -39.5q-41 -39 -59 -129l-326 -1523z" />
<glyph unicode="&#xe0;" horiz-adv-x="1028" d="M-37 247.5q0 106.5 17 217.5q14 100 55 207q39 102 98 180q58 77 154 123q98 47 213 47q78 0 137 -51l12 53h295l-147 -696q-8 -41 -9 -64q0 -78 103 -78q33 0 67 21q41 25 66 43l74 61q45 41 63 56h70q-2 -2 -6 -7.5t-19.5 -20.5t-42.5 -44l-100 -102l-102 -89 q-59 -49 -115 -77q-53 -27 -101 -27q-213 0 -249 156q-123 -168 -279 -168q-137 0 -194 75q-60 78 -60 184.5zM240 303q0 -145 118 -145q59 0 131 102q3 31 13 68l114 542q-43 37 -100 37q-113 0 -194 -192q-82 -191 -82 -412zM377 1536h215l59 -387h-153z" />
<glyph unicode="&#xe1;" horiz-adv-x="999" d="M-37 247.5q0 106.5 17 217.5q14 100 55 207q39 102 98 180q58 77 154 123q98 47 213 47q78 0 137 -51l12 53h295l-147 -696q-8 -41 -9 -64q0 -78 103 -78q33 0 67 21q41 25 66 43l74 61q45 41 63 56h70q-2 -2 -6 -7.5t-19.5 -20.5t-42.5 -44l-100 -102l-102 -89 q-59 -49 -115 -77q-53 -27 -101 -27q-213 0 -249 156q-123 -168 -279 -168q-137 0 -194 75q-60 78 -60 184.5zM240 303q0 -145 118 -145q59 0 131 102q3 31 13 68l114 542q-43 37 -100 37q-113 0 -194 -192q-82 -191 -82 -412zM506 1149l186 387h215l-248 -387h-153z" />
<glyph unicode="&#xe2;" horiz-adv-x="1028" d="M-37 247.5q0 106.5 17 217.5q14 100 55 207q39 102 98 180q58 77 154 123q98 47 213 47q78 0 137 -51l12 53h295l-147 -696q-8 -41 -9 -64q0 -78 103 -78q33 0 67 21q41 25 66 43l74 61q45 41 63 56h70q-2 -2 -6 -7.5t-19.5 -20.5t-42.5 -44l-100 -102l-102 -89 q-59 -49 -115 -77q-53 -27 -101 -27q-213 0 -249 156q-123 -168 -279 -168q-137 0 -194 75q-60 78 -60 184.5zM240 303q0 -145 118 -145q59 0 131 102q3 31 13 68l114 542q-43 37 -100 37q-113 0 -194 -192q-82 -191 -82 -412zM305 1149l434 387h43l123 -387h-65l-123 164 l-322 -164h-90z" />
<glyph unicode="&#xe3;" horiz-adv-x="1028" d="M-37 247.5q0 106.5 17 217.5q14 100 55 207q39 102 98 180q58 77 154 123q98 47 213 47q78 0 137 -51l12 53h295l-147 -696q-8 -41 -9 -64q0 -78 103 -78q33 0 67 21q41 25 66 43l74 61q45 41 63 56h70q-2 -2 -6 -7.5t-19.5 -20.5t-42.5 -44l-100 -102l-102 -89 q-59 -49 -115 -77q-53 -27 -101 -27q-213 0 -249 156q-123 -168 -279 -168q-137 0 -194 75q-60 78 -60 184.5zM174 1192q102 201 342 201q82 0 180 -33q104 -35 158 -35q86 0 129 47l12 -2q-18 -76 -118 -141q-96 -63 -211 -64q-70 0 -181 37q-117 39 -163 39 q-76 0 -136 -53zM240 303q0 -145 118 -145q59 0 131 102q3 31 13 68l114 542q-43 37 -100 37q-113 0 -194 -192q-82 -191 -82 -412z" />
<glyph unicode="&#xe4;" horiz-adv-x="1028" d="M-37 247.5q0 106.5 17 217.5q14 100 55 207q39 102 98 180q58 77 154 123q98 47 213 47q78 0 137 -51l12 53h295l-147 -696q-8 -41 -9 -64q0 -78 103 -78q33 0 67 21q41 25 66 43l74 61q45 41 63 56h70q-2 -2 -6 -7.5t-19.5 -20.5t-42.5 -44l-100 -102l-102 -89 q-59 -49 -115 -77q-53 -27 -101 -27q-213 0 -249 156q-123 -168 -279 -168q-137 0 -194 75q-60 78 -60 184.5zM240 303q0 -145 118 -145q59 0 131 102q3 31 13 68l114 542q-43 37 -100 37q-113 0 -194 -192q-82 -191 -82 -412zM299 1298.5q0 51.5 37 88t88 36.5t88 -36.5 t37 -88t-37 -88t-88 -36.5t-88 36.5t-37 88zM668 1298.5q0 51.5 36.5 88t88 36.5t88.5 -36.5t37 -88t-37 -88t-88.5 -36.5t-88 36.5t-36.5 88z" />
<glyph unicode="&#xe5;" horiz-adv-x="1028" d="M-37 247.5q0 106.5 17 217.5q14 100 55 207q39 102 98 180q58 77 154 123q98 47 213 47q78 0 137 -51l12 53h295l-147 -696q-8 -41 -9 -64q0 -78 103 -78q33 0 67 21q41 25 66 43l74 61q45 41 63 56h70q-2 -2 -6 -7.5t-19.5 -20.5t-42.5 -44l-100 -102l-102 -89 q-59 -49 -115 -77q-53 -27 -101 -27q-213 0 -249 156q-123 -168 -279 -168q-137 0 -194 75q-60 78 -60 184.5zM240 303q0 -145 118 -145q59 0 131 102q3 31 13 68l114 542q-43 37 -100 37q-113 0 -194 -192q-82 -191 -82 -412zM489 1284q0 66 46 125q46 61 129 61 q72 0 110 -45q37 -43 37 -112q0 -74 -43 -123t-135 -49q-63 0 -103 43q-41 45 -41 100zM571 1288q0 -76 70 -76q94 0 94 95q0 96 -67 96q-47 0 -72 -35q-25 -34 -25 -80z" />
<glyph unicode="&#xe6;" horiz-adv-x="1280" d="M-37 247.5q0 106.5 17 217.5q14 100 55 207q39 102 98 180q58 77 154 123q98 47 213 47q70 0 125 -41q59 -43 61 -94q125 156 313 155q262 0 263 -213q0 -176 -146 -284q-150 -113 -317 -133q-6 -49 -6 -88q0 -90 49 -133.5t119 -43.5q80 0 186 80q102 76 158 191h92 q-100 -178 -248 -299q-145 -119 -330 -119q-113 0 -184 57q-76 59 -103 152q-139 -221 -315 -221q-137 0 -194 75q-60 78 -60 184.5zM240 303q0 -145 118 -145q66 0 158 143v25q0 301 131 508q-43 74 -131 73q-113 0 -194 -192q-82 -191 -82 -412zM815 510q137 4 229 98 q90 94 95 211q0 115 -72 115q-55 0 -106 -68q-45 -59 -87 -159q-39 -99 -59 -197z" />
<glyph unicode="&#xe7;" horiz-adv-x="735" d="M-27 336q0 88 17 186q16 96 55 187q41 94 98.5 163.5t149.5 112.5q96 45 207 45q225 0 225 -141q0 -31 -10 -68q-23 12 -51 13q-25 0 -66 -13q10 41 10 58q0 70 -76 69q-119 0 -200 -184q-82 -182 -82 -371q0 -102 31 -162q31 -57 118 -57q184 0 357 193h69 q-102 -158 -223 -258q-121 -98 -235 -109l-56 -135q70 16 109 16q127 0 127 -102q0 -100 -76 -164q-74 -61 -170 -61q-111 0 -219 57q37 66 82 65.5t86 -28.5q39 -27 65 -27q25 0 43 27q18 29 19 59q0 74 -80 74q-55 0 -107 -25l89 244q-162 0 -234 90t-72 246z" />
<glyph unicode="&#xe8;" horiz-adv-x="724" d="M-37 326q0 109 25 223q27 121 75 231q51 117 152 189q100 74 231 73q262 0 263 -213q0 -176 -146 -284q-150 -113 -317 -133q-6 -49 -6 -88q0 -90 49 -133.5t119 -43.5q80 0 186 80q102 76 158 191h92q-100 -178 -248 -299q-145 -119 -330 -119q-143 0 -223 92.5 t-80 233.5zM225 1536h215l60 -387h-154zM262 510q137 4 230 98q90 94 94 211q0 115 -72 115q-55 0 -106 -68q-49 -66 -89 -159q-34 -86 -57 -197z" />
<glyph unicode="&#xe9;" horiz-adv-x="739" d="M-37 326q0 109 25 223q27 121 75 231q51 117 152 189q100 74 231 73q262 0 263 -213q0 -176 -146 -284q-150 -113 -317 -133q-6 -49 -6 -88q0 -90 49 -133.5t119 -43.5q80 0 186 80q102 76 158 191h92q-100 -178 -248 -299q-145 -119 -330 -119q-143 0 -223 92.5 t-80 233.5zM262 510q137 4 230 98q90 94 94 211q0 115 -72 115q-55 0 -106 -68q-49 -66 -89 -159q-34 -86 -57 -197zM418 1149l186 387h215l-248 -387h-153z" />
<glyph unicode="&#xea;" horiz-adv-x="724" d="M-37 326q0 109 25 223q27 121 75 231q51 117 152 189q100 74 231 73q262 0 263 -213q0 -176 -146 -284q-150 -113 -317 -133q-6 -49 -6 -88q0 -90 49 -133.5t119 -43.5q80 0 186 80q102 76 158 191h92q-100 -178 -248 -299q-145 -119 -330 -119q-143 0 -223 92.5 t-80 233.5zM166 1149l434 387h43l123 -387h-66l-122 164l-322 -164h-90zM262 510q137 4 230 98q90 94 94 211q0 115 -72 115q-55 0 -106 -68q-49 -66 -89 -159q-34 -86 -57 -197z" />
<glyph unicode="&#xeb;" horiz-adv-x="724" d="M-37 326q0 109 25 223q27 121 75 231q51 117 152 189q100 74 231 73q262 0 263 -213q0 -176 -146 -284q-150 -113 -317 -133q-6 -49 -6 -88q0 -90 49 -133.5t119 -43.5q80 0 186 80q102 76 158 191h92q-100 -178 -248 -299q-145 -119 -330 -119q-143 0 -223 92.5 t-80 233.5zM147 1298.5q0 51.5 37 88t88.5 36.5t88 -36.5t36.5 -88t-36.5 -88t-88 -36.5t-88.5 36.5t-37 88zM262 510q137 4 230 98q90 94 94 211q0 115 -72 115q-55 0 -106 -68q-49 -66 -89 -159q-34 -86 -57 -197zM516 1298.5q0 51.5 37 88t88 36.5t88 -36.5t37 -88 t-37 -88t-88 -36.5t-88 36.5t-37 88z" />
<glyph unicode="&#xec;" horiz-adv-x="548" d="M-12 223q0 46 12 105l145 696h297l-147 -696q-10 -41 -10 -66q0 -76 102 -76q33 0 68 21q41 25 65 43l74 61q45 41 63 56h70q-2 -2 -6 -7.5t-19.5 -20.5t-42.5 -44q-61 -66 -102 -102q-37 -35 -100 -89q-59 -49 -115 -77q-53 -27 -100 -27q-254 0 -254 223zM137 1536h215 l60 -387h-154z" />
<glyph unicode="&#xed;" horiz-adv-x="520" d="M-12 223q0 46 12 105l145 696h297l-147 -696q-10 -41 -10 -66q0 -76 102 -76q33 0 68 21q41 25 65 43l74 61q45 41 63 56h70q-2 -2 -6 -7.5t-19.5 -20.5t-42.5 -44q-61 -66 -102 -102q-37 -35 -100 -89q-59 -49 -115 -77q-53 -27 -100 -27q-254 0 -254 223zM236 1149 l186 387h215l-248 -387h-153z" />
<glyph unicode="&#xee;" horiz-adv-x="548" d="M-14 1149l434 387h43l123 -387h-66l-123 164l-321 -164h-90zM-12 223q0 46 12 105l145 696h297l-147 -696q-10 -41 -10 -66q0 -76 102 -76q33 0 68 21q41 25 65 43l74 61q45 41 63 56h70q-2 -2 -6 -7.5t-19.5 -20.5t-42.5 -44q-61 -66 -102 -102q-37 -35 -100 -89 q-59 -49 -115 -77q-53 -27 -100 -27q-254 0 -254 223z" />
<glyph unicode="&#xef;" horiz-adv-x="548" d="M-12 223q0 46 12 105l145 696h297l-147 -696q-10 -41 -10 -66q0 -76 102 -76q33 0 68 21q41 25 65 43l74 61q45 41 63 56h70q-2 -2 -6 -7.5t-19.5 -20.5t-42.5 -44q-61 -66 -102 -102q-37 -35 -100 -89q-59 -49 -115 -77q-53 -27 -100 -27q-254 0 -254 223zM41 1298.5 q0 51.5 37 88t88 36.5t88 -36.5t37 -88t-37 -88t-88 -36.5t-88 36.5t-37 88zM410 1298.5q0 51.5 36.5 88t88 36.5t88 -36.5t36.5 -88t-36.5 -88t-88 -36.5t-88 36.5t-36.5 88z" />
<glyph unicode="&#xf0;" horiz-adv-x="1042" d="M-37 247.5q0 106.5 17 217.5q14 100 55 207q39 102 98 180q58 77 154 123q98 47 213 47q72 0 137 -53l6 24q18 82 23 156h-136l17 82h119q-12 104 -86 203h92q168 -92 219 -203h151l-16 -82h-108q10 -61 10 -113q0 -90 -21 -186l-110 -522l-11 -66q0 -76 103 -76 q33 0 67 21q41 25 66 43l74 61q45 41 63 56h70q-2 -2 -6 -7.5t-19.5 -20.5t-42.5 -44l-100 -102l-103 -89q-55 -47 -116 -77q-53 -27 -99 -27q-211 0 -247 156q-123 -168 -279 -168q-137 0 -194 75q-60 78 -60 184.5zM240 303q0 -145 118 -145q59 0 131 102q3 31 13 68 l114 542q-43 37 -100 37q-113 0 -194 -192q-82 -191 -82 -412z" />
<glyph unicode="&#xf1;" horiz-adv-x="1028" d="M-74 0l217 1024h295l-24 -111q152 111 268 111q88 0 162 -78q74 -77 74 -178q0 -29 -5 -49l-84 -391q-10 -41 -10 -66q0 -76 103 -76q37 0 63 15q28 15 68 55q35 35 63 59h70l-14.5 -15t-28 -31.5t-35.5 -39.5q-65 -71 -104 -110q-37 -37 -107 -80q-63 -39 -121 -39 q-254 0 -254 223q0 46 13 105l77 368q6 29 6 54q0 55 -26.5 87.5t-67.5 32.5q-65 0 -129 -43l-174 -827h-295zM174 1192q102 201 342 201q82 0 180 -33q104 -35 158 -35q86 0 129 47l12 -2q-18 -76 -118 -141q-96 -63 -211 -64q-70 0 -181 37q-117 39 -163 39 q-76 0 -136 -53z" />
<glyph unicode="&#xf2;" horiz-adv-x="854" d="M-14 324q0 354 155 538q154 182 383 182q238 0 248 -301q18 -18 59 -18q55 0 127 47q76 49 89 53l8 -43q-100 -127 -289 -180q-29 -293 -164 -452q-137 -162 -303 -162t-240 78q-73 77 -73 258zM258 342q0 -88 35 -121q39 -35 102 -35q59 0 106.5 59.5t73.5 143.5 q27 82 39 193q-45 0 -65.5 26.5t-20.5 65.5q0 45 25 88q23 39 65 55q-8 106 -86 107q-70 0 -122 -66q-59 -74 -88 -164q-33 -104 -48 -190q-16 -99 -16 -162zM291 1536h215l59 -387h-153z" />
<glyph unicode="&#xf3;" horiz-adv-x="884" d="M-4 324q0 354 156 538q154 182 383 182q242 0 247 -301q18 -18 60 -18q55 0 127 47q76 49 88 53l8 -43q-100 -127 -289 -180q-29 -293 -164 -452q-137 -162 -303 -162t-239 78q-74 77 -74 258zM268 342q0 -88 35 -121q39 -35 103 -35q59 0 106 59.5t74 143.5 q27 82 39 193q-43 0 -64 26q-23 29 -22 66q0 45 24 88q23 39 66 55q-8 106 -86 107q-70 0 -123 -66q-57 -70 -86 -164q-37 -119 -49 -190q-17 -99 -17 -162zM442 1149l187 387h215l-248 -387h-154z" />
<glyph unicode="&#xf4;" horiz-adv-x="854" d="M-14 324q0 354 155 538q154 182 383 182q238 0 248 -301q18 -18 59 -18q55 0 127 47q76 49 89 53l8 -43q-100 -127 -289 -180q-29 -293 -164 -452q-137 -162 -303 -162t-240 78q-73 77 -73 258zM209 1149l434 387h43l123 -387h-66l-122 164l-322 -164h-90zM258 342 q0 -88 35 -121q39 -35 102 -35q59 0 106.5 59.5t73.5 143.5q27 82 39 193q-45 0 -65.5 26.5t-20.5 65.5q0 45 25 88q23 39 65 55q-8 106 -86 107q-70 0 -122 -66q-59 -74 -88 -164q-33 -104 -48 -190q-16 -99 -16 -162z" />
<glyph unicode="&#xf5;" horiz-adv-x="854" d="M-14 324q0 354 155 538q154 182 383 182q238 0 248 -301q18 -18 59 -18q55 0 127 47q76 49 89 53l8 -43q-100 -127 -289 -180q-29 -293 -164 -452q-137 -162 -303 -162t-240 78q-73 77 -73 258zM115 1192q102 201 342 201q82 0 180 -33q104 -35 158 -35q86 0 129 47 l12 -2q-18 -77 -117 -141q-96 -63 -213 -64q-70 0 -180 37q-117 39 -164 39q-76 0 -135 -53zM258 342q0 -88 35 -121q39 -35 102 -35q59 0 106.5 59.5t73.5 143.5q27 82 39 193q-45 0 -65.5 26.5t-20.5 65.5q0 45 25 88q23 39 65 55q-8 106 -86 107q-70 0 -122 -66 q-59 -74 -88 -164q-33 -104 -48 -190q-16 -99 -16 -162z" />
<glyph unicode="&#xf6;" horiz-adv-x="854" d="M-14 324q0 354 155 538q154 182 383 182q238 0 248 -301q18 -18 59 -18q55 0 127 47q76 49 89 53l8 -43q-100 -127 -289 -180q-29 -293 -164 -452q-137 -162 -303 -162t-240 78q-73 77 -73 258zM213 1298.5q0 51.5 37 88t88 36.5t88 -36.5t37 -88t-37 -88t-88 -36.5 t-88 36.5t-37 88zM258 342q0 -88 35 -121q39 -35 102 -35q59 0 106.5 59.5t73.5 143.5q27 82 39 193q-45 0 -65.5 26.5t-20.5 65.5q0 45 25 88q23 39 65 55q-8 106 -86 107q-70 0 -122 -66q-59 -74 -88 -164q-33 -104 -48 -190q-16 -99 -16 -162zM582 1298.5q0 51.5 36.5 88 t88 36.5t88 -36.5t36.5 -88t-36.5 -88t-88 -36.5t-88 36.5t-36.5 88z" />
<glyph unicode="&#xf7;" horiz-adv-x="964" d="M104 422l37 162h717l-35 -162h-719zM301 164q0 63 47 115q45 49 115 49q66 0 115 -49.5t49 -114.5q0 -70 -49 -115q-51 -47 -115 -47q-68 0 -115 47t-47 115zM424 850q0 66 47 117q45 47 114.5 47t117 -47t47.5 -117t-48 -115q-51 -47 -116 -47q-68 0 -115 47t-47 115z " />
<glyph unicode="&#xf8;" horiz-adv-x="854" d="M-14 324q0 344 141 524q139 178 360 194l105 494h106l-106 -500q178 -41 180 -293q18 -18 59 -18q55 0 127 47q76 49 89 53l8 -43q-100 -127 -289 -180q-25 -256 -137 -416q-111 -157 -258 -190l-107 -508h-106l106 502q-150 10 -213 86q-65 78 -65 248zM258 342 q0 -102 51 -135l148 692q-92 -57 -146 -240q-53 -184 -53 -317zM412 188q82 12 133 123q51 106 69 271q-45 0 -65.5 26.5t-20.5 65.5q0 45 25 88q23 39 65 55q-6 80 -51 101z" />
<glyph unicode="&#xf9;" horiz-adv-x="1062" d="M-29 223q0 46 13 105l147 696h295l-147 -696q-8 -41 -9 -64q0 -78 103 -78q53 0 145 74q3 31 12 68l148 696h295l-148 -696q-8 -41 -8 -64q0 -78 103 -78q33 0 67 21q41 25 66 43q28 22 73 61l64 56h70q-2 -2 -6.5 -7.5t-19.5 -20.5l-42 -44q-61 -66 -102 -102 q-37 -35 -101 -89q-59 -49 -115 -77q-53 -27 -100 -27q-224 0 -252 172q-184 -172 -295 -172q-256 0 -256 223zM395 1536h215l60 -387h-154z" />
<glyph unicode="&#xfa;" horiz-adv-x="1042" d="M-29 223q0 46 13 105l147 696h295l-147 -696q-8 -41 -9 -64q0 -78 103 -78q53 0 145 74q3 31 12 68l148 696h295l-148 -696q-8 -41 -8 -64q0 -78 103 -78q33 0 67 21q41 25 66 43q28 22 73 61l64 56h70q-2 -2 -6.5 -7.5t-19.5 -20.5l-42 -44q-61 -66 -102 -102 q-37 -35 -101 -89q-59 -49 -115 -77q-53 -27 -100 -27q-224 0 -252 172q-184 -172 -295 -172q-256 0 -256 223zM489 1149l187 387h215l-248 -387h-154z" />
<glyph unicode="&#xfb;" horiz-adv-x="1062" d="M-29 223q0 46 13 105l147 696h295l-147 -696q-8 -41 -9 -64q0 -78 103 -78q53 0 145 74q3 31 12 68l148 696h295l-148 -696q-8 -41 -8 -64q0 -78 103 -78q33 0 67 21q41 25 66 43q28 22 73 61l64 56h70q-2 -2 -6.5 -7.5t-19.5 -20.5l-42 -44q-61 -66 -102 -102 q-37 -35 -101 -89q-59 -49 -115 -77q-53 -27 -100 -27q-224 0 -252 172q-184 -172 -295 -172q-256 0 -256 223zM270 1149l435 387h43l122 -387h-65l-123 164l-322 -164h-90z" />
<glyph unicode="&#xfc;" horiz-adv-x="1062" d="M-29 223q0 46 13 105l147 696h295l-147 -696q-8 -41 -9 -64q0 -78 103 -78q53 0 145 74q3 31 12 68l148 696h295l-148 -696q-8 -41 -8 -64q0 -78 103 -78q33 0 67 21q41 25 66 43q28 22 73 61l64 56h70q-2 -2 -6.5 -7.5t-19.5 -20.5l-42 -44q-61 -66 -102 -102 q-37 -35 -101 -89q-59 -49 -115 -77q-53 -27 -100 -27q-224 0 -252 172q-184 -172 -295 -172q-256 0 -256 223zM274 1298.5q0 51.5 37 88t88.5 36.5t88 -36.5t36.5 -88t-36.5 -88t-88 -36.5t-88.5 36.5t-37 88zM643 1298.5q0 51.5 37 88t88 36.5t88 -36.5t37 -88t-37 -88 t-88 -36.5t-88 36.5t-37 88z" />
<glyph unicode="&#xfd;" horiz-adv-x="1042" d="M-29 223q0 46 13 105l147 696h295l-147 -696q-8 -41 -9 -64q0 -78 103 -78q58 0 153 80l162 758h295l-190 -897q223 106 313 303l-8 -162q-18 -88 -102.5 -141t-223.5 -94l-41 -197q-74 -348 -369 -348q-96 0 -169 63q-72 61 -72 158q0 66 26 119q25 49 80 86 q53 35 107 57q41 16 139 45l29 140q-168 -156 -275 -156q-256 0 -256 223zM233 -262q0 -25 25 -45q27 -23 57 -23q37 0 70 37t49 123l25 119q-115 -39 -168 -84q-58 -49 -58 -127zM483 1149l187 387h215l-248 -387h-154z" />
<glyph unicode="&#xfe;" horiz-adv-x="929" d="M-197 -512l320 1505q25 111 24 191q0 135 -88 250h93q111 -59 165 -119q59 -63 82 -174q82 45 160 45q162 0 237.5 -65.5t75.5 -221.5q0 -63 -12 -143q-86 -590 -448 -590q-84 0 -162 43l-137 -647zM276 336q39 -18 103 -19q77 0 123 86q43 80 96 328q27 127 27 207 q0 88 -29 117q-31 31 -86 30q-45 0 -100 -32q0 -90 -23 -203z" />
<glyph unicode="&#xff;" horiz-adv-x="1042" d="M-29 223q0 46 13 105l147 696h295l-147 -696q-8 -41 -9 -64q0 -78 103 -78q58 0 153 80l162 758h295l-190 -897q223 106 313 303l-8 -162q-18 -88 -102.5 -141t-223.5 -94l-41 -197q-74 -348 -369 -348q-96 0 -169 63q-72 61 -72 158q0 66 26 119q25 49 80 86 q53 35 107 57q41 16 139 45l29 140q-168 -156 -275 -156q-256 0 -256 223zM233 -262q0 -25 25 -45q27 -23 57 -23q37 0 70 37t49 123l25 119q-115 -39 -168 -84q-58 -49 -58 -127zM272 1298q0 51 37 88t88.5 37t88 -36.5t36.5 -88t-36.5 -88t-88.5 -36.5q-53 0 -90 36 q-35 35 -35 88zM641 1298.5q0 51.5 37 88t88 36.5t88 -36.5t37 -88t-37 -88t-88 -36.5t-88 36.5t-37 88z" />
<glyph unicode="&#x131;" horiz-adv-x="563" d="M-12 223q0 46 12 105l145 696h297l-147 -696q-10 -41 -10 -66q0 -76 102 -76q33 0 68 21q41 25 65 43l74 61q45 41 63 56h70q-2 -2 -6 -7.5t-19.5 -20.5t-42.5 -44q-61 -66 -102 -102q-37 -35 -100 -89q-59 -49 -115 -77q-53 -27 -100 -27q-254 0 -254 223z" />
<glyph unicode="&#x152;" horiz-adv-x="2285" d="M12 1004q0 201 229.5 366.5t489.5 165.5q164 0 287 -47q152 47 330 47q37 0 153.5 -12.5t186.5 -12.5q111 0 184 25l-17 -53q-14 -47 -20 -62l-27 -53q-18 -31 -53 -49q-39 -20 -78 -29q-111 0 -286 39l-101 -471h316l-41 -151h-305l-107 -490h457l-43 -217h-756l2 8 q-68 -27 -133 -26q-205 0 -313 108q-106 106 -107 354q0 154 27 306q29 166 78 294q51 137 139 228q86 88 194 88q47 0 97 -17q-276 -365 -277 -858q0 -139 41 -237q39 -94 121 -94q86 0 174 137q90 139 145.5 342t55.5 391q0 106 -11 162q-14 74 -40 129q-33 63 -93 94 q-66 33 -155 33q-250 0 -401.5 -133t-151.5 -365q0 -45 6 -76q6 -33 14 -45q8 -14 8 -18q-109 0 -165 47q-54 46 -54 152z" />
<glyph unicode="&#x153;" horiz-adv-x="1581" d="M-14 324q0 354 155 538q154 182 383 182q238 0 248 -301q18 -18 59 -18q39 0 70 12q133 305 402 305q262 0 262 -213q0 -176 -146 -284q-150 -113 -317 -133q-6 -49 -6 -88q0 -90 49 -133.5t119 -43.5q80 0 186 80q102 76 158 191h92q-100 -178 -248 -299 q-145 -119 -330 -119q-143 0 -223 92t-80 234q0 166 45 313q-46 -22 -98 -37q-29 -293 -164 -452q-137 -162 -303 -162t-240 78q-73 77 -73 258zM258 342q0 -88 35 -121q39 -35 102 -35q59 0 106.5 59.5t73.5 143.5q27 82 39 193q-45 0 -65.5 26.5t-20.5 65.5q0 45 25 88 q23 39 65 55q-8 106 -86 107q-70 0 -122 -66q-59 -74 -88 -164q-33 -104 -48 -190q-16 -99 -16 -162zM1118 510q135 3 228 98q92 96 96 211q0 115 -72 115q-55 0 -106 -68q-49 -66 -88 -159q-35 -86 -58 -197z" />
<glyph unicode="&#x160;" horiz-adv-x="1165" d="M70 319q0 135 88 215t213 80q144 0 166 -104q-125 -8 -182.5 -63.5t-57.5 -161.5q0 -96 61 -146q63 -51 142 -51q115 0 170 84q55 83 55 209q0 92 -33 170t-82 133l-106 113l-107 106q-45 45 -82 115q-33 63 -32 137q0 160 149 270q151 111 338 111q344 0 344 -246 q0 -90 -47 -149q-45 -57 -123 -58q-55 0 -92 43q41 25 66 74q27 53 26 103q0 58 -37 98q-37 39 -112 39q-84 0 -137.5 -47t-53.5 -131q0 -72 35 -138q35 -68 84 -110l111 -101q55 -49 112 -110q49 -53 84 -144q35 -92 35 -194q0 -217 -147.5 -346t-395.5 -129q-59 0 -112 6 q-66 8 -117 24q-68 23 -113 56t-77.5 96t-32.5 147zM717 2048h65l123 -164l322 164h90l-434 -387h-43z" />
<glyph unicode="&#x161;" horiz-adv-x="829" d="M-18 268q0 119 45 189q47 74 110 75q88 162 156 472l297 61v-29q0 -141 35 -264q18 -68 69 -219q35 -104 35 -197q0 -33 -2 -43q72 61 133 133l53 -69l-221 -187q-90 -190 -360 -190q-184 0 -266 61q-84 62 -84 207zM86 295q0 -174 174 -174q59 0 114.5 67.5t55.5 176.5 q0 45 -47 198q-47 152 -49 293q0 -2 -5 -18.5l-14.5 -50l-21.5 -72.5q-43 -143 -66 -193q68 -23 68 -114q0 -57 -39 -94.5t-96 -37.5q-37 1 -74 19zM362 1536h66l123 -164l321 164h91l-435 -387h-43z" />
<glyph unicode="&#x178;" horiz-adv-x="1267" d="M12 1004q0 201 229.5 366.5t489.5 165.5q12 0 82 -4l178 -733l303 727h136l-398 -895l-135 -631h-328l136 631l-197 768q-145 -53 -225 -170t-80 -285q0 -45 6 -76q6 -33 14 -45q8 -14 8 -18q-109 0 -165 47q-54 46 -54 152zM913 1810.5q0 51.5 37 88t88.5 36.5t88 -36.5 t36.5 -88t-36.5 -88t-88 -36.5t-88.5 36.5t-37 88zM1282 1810.5q0 51.5 37 88t88 36.5t88 -36.5t37 -88t-37 -88t-88 -36.5t-88 36.5t-37 88z" />
<glyph unicode="&#x17d;" horiz-adv-x="1083" d="M23 0l729 1450q-127 4 -205 4q-168 0 -168 -45q15 0 24 -18q10 -20 11 -41q0 -123 -129 -123q-41 0 -70 35q-27 33 -27 84q0 84 62 137q63 53 178 53h702l-712 -1417q127 -4 297 -4q113 0 112 45q-12 0 -24 16.5t-12 40.5q0 125 131 125q41 0 69 -35q27 -33 27 -84 q0 -88 -70 -155q-72 -68 -186 -68h-739zM641 2048h66l122 -164l322 164h90l-434 -387h-43z" />
<glyph unicode="&#x17e;" horiz-adv-x="782" d="M-96 0l538 938q-127 4 -149 4q-113 0 -113 -45q15 0 25 -18q10 -20 10 -41q0 -123 -129 -123q-41 0 -70 35q-27 33 -26 84q0 84 61 137q63 53 178 53h551l-538 -938q127 -4 149 -4q113 0 113 45q-12 0 -24.5 16.5t-12.5 40.5q0 125 131 125q41 0 70 -35q27 -33 26 -84 q0 -84 -61 -137q-63 -53 -178 -53h-551zM317 1536h66l123 -164l321 164h91l-435 -387h-43z" />
<glyph unicode="&#x192;" horiz-adv-x="552" d="M-414 -291q0 66 27 119q25 51 80 84q72 43 104 57q59 25 142 47l196 926h-123l17 82h123l34 162q78 348 373 348q100 0 170 -61q72 -61 72 -160q0 -47 -6 -84h-97q4 53 4 55q0 33 -22 51q-20 18 -55 19q-43 0 -84 -37t-60 -131l-35 -162h152l-16 -82h-154l-233 -1106 q-74 -348 -367 -348q-96 0 -170 63q-72 62 -72 158zM-301 -262q0 -25 25 -45q27 -23 57 -23q83 0 117 160l26 119q-115 -39 -168 -84q-57 -49 -57 -127z" />
<glyph unicode="&#x2c6;" horiz-adv-x="860" d="M102 1149l435 387h43l122 -387h-65l-123 164l-321 -164h-91z" />
<glyph unicode="&#x2c7;" horiz-adv-x="860" d="M160 1536h65l123 -164l322 164h90l-434 -387h-43z" />
<glyph unicode="&#x2da;" horiz-adv-x="1703" d="M692 1274q0 68 45 127t129 59q72 0 111 -45q37 -43 37 -112q0 -74 -43 -123.5t-135 -49.5q-63 0 -103 41q-41 46 -41 103zM774 1278q0 -76 70 -76q94 0 94 94q0 96 -68 97q-49 0 -73 -35q-23 -31 -23 -80z" />
<glyph unicode="&#x2dc;" horiz-adv-x="880" d="M100 1192q102 201 342 201q82 0 181 -33q104 -35 157 -35q86 0 129 47l13 -2q-18 -77 -117 -141q-96 -63 -213 -64q-70 0 -180 37q-117 39 -164 39q-76 0 -135 -53z" />
<glyph unicode="&#x2000;" horiz-adv-x="1024" />
<glyph unicode="&#x2001;" horiz-adv-x="2048" />
<glyph unicode="&#x2002;" horiz-adv-x="1024" />
<glyph unicode="&#x2003;" horiz-adv-x="2048" />
<glyph unicode="&#x2004;" horiz-adv-x="681" />
<glyph unicode="&#x2005;" horiz-adv-x="512" />
<glyph unicode="&#x2006;" horiz-adv-x="339" />
<glyph unicode="&#x2007;" horiz-adv-x="339" />
<glyph unicode="&#x2008;" horiz-adv-x="256" />
<glyph unicode="&#x2009;" horiz-adv-x="407" />
<glyph unicode="&#x200a;" horiz-adv-x="112" />
<glyph unicode="&#x2010;" horiz-adv-x="591" d="M39 455l37 161h409l-34 -161h-412z" />
<glyph unicode="&#x2011;" horiz-adv-x="591" d="M39 455l37 161h409l-34 -161h-412z" />
<glyph unicode="&#x2012;" horiz-adv-x="591" d="M39 455l37 161h409l-34 -161h-412z" />
<glyph unicode="&#x2013;" horiz-adv-x="718" d="M39 455l37 161h532l-35 -161h-534z" />
<glyph unicode="&#x2014;" horiz-adv-x="907" d="M39 455l37 161h717l-35 -161h-719z" />
<glyph unicode="&#x2018;" horiz-adv-x="622" d="M172 1397q0 57 35 96t96 39q66 0 107 -41q43 -43 43 -102q0 -78 -91 -129q-25 -14 -24 -35l100 -144q0 -20 -18 -28q-117 76 -182.5 168t-65.5 176z" />
<glyph unicode="&#x2019;" horiz-adv-x="622" d="M172 1389q0 59 43 102q41 41 107 41q61 0 96 -39t35 -96q0 -82 -68 -176.5t-180 -167.5q-18 8 -19 28l101 144q0 20 -25 35q-90 53 -90 129z" />
<glyph unicode="&#x201a;" horiz-adv-x="577" d="M156 156q0 57 43 100t106 43q61 0 96 -39t35 -96q0 -82 -67.5 -176t-180.5 -168q-18 8 -18 28l100 144q0 20 -24 35q-90 53 -90 129z" />
<glyph unicode="&#x201c;" horiz-adv-x="1040" d="M156 1397q0 57 34.5 96t96.5 39q66 0 106 -41q43 -43 43 -102q0 -76 -90 -129q-25 -14 -24 -35l100 -144q0 -20 -19 -28q-123 80 -182 168q-65 96 -65 176zM606 1397q0 57 35 96t96 39q66 0 107 -41q43 -43 43 -102q0 -76 -90 -129q-25 -14 -25 -35l100 -144 q0 -20 -18 -28q-117 76 -182.5 168t-65.5 176z" />
<glyph unicode="&#x201d;" horiz-adv-x="1040" d="M156 1389q0 59 43 102q41 41 106 41q61 0 96 -39t35 -96q0 -82 -67.5 -176.5t-180.5 -167.5q-18 8 -18 28l100 144q0 20 -24 35q-90 53 -90 129zM606 1389q0 59 43 102q41 41 107 41q61 0 96 -39t35 -96q0 -84 -65.5 -176.5t-182.5 -167.5q-18 8 -18 28l100 144 q0 20 -25 35q-90 53 -90 129z" />
<glyph unicode="&#x201e;" horiz-adv-x="1040" d="M156 156q0 57 43 100t106 43q61 0 96 -39t35 -96q0 -82 -67.5 -176t-180.5 -168q-18 8 -18 28l100 144q0 20 -24 35q-90 53 -90 129zM606 156q0 57 43 100t107 43q61 0 96 -39t35 -96q0 -84 -65.5 -176t-182.5 -168q-18 8 -18 28l100 144q0 20 -25 35q-90 53 -90 129z " />
<glyph unicode="&#x2020;" horiz-adv-x="1011" d="M139 647l49 230h297l142 659h147l-141 -659h309l-47 -230h-309l-246 -1159h-147l245 1159h-299z" />
<glyph unicode="&#x2021;" horiz-adv-x="1011" d="M49 207l49 229h295l45 211h-299l49 230h297l142 659h147l-141 -659h309l-47 -230h-309l-45 -211h311l-47 -229h-313l-152 -719h-147l151 719h-295z" />
<glyph unicode="&#x2022;" horiz-adv-x="886" d="M246 547q0 82 57 139q59 59 139 59t139.5 -59t59.5 -139t-59 -139q-57 -57 -139.5 -57.5t-139.5 57t-57 139.5z" />
<glyph unicode="&#x2026;" horiz-adv-x="1435" d="M63 154q0 63 48 114q45 49 114 49q68 0 117 -49q47 -47 47 -114q0 -70 -47 -115q-51 -47 -117 -47q-68 0 -115 47t-47 115zM545 154q0 63 47 114q47 49 115 49q66 0 114.5 -49t48.5 -114q0 -68 -49 -115q-51 -47 -114 -47q-68 0 -115 47t-47 115zM1047 154q0 63 47 114 q45 49 114 49q66 0 115 -49t49 -114q0 -68 -49 -115q-51 -47 -115 -47q-68 0 -114.5 47t-46.5 115z" />
<glyph unicode="&#x202f;" horiz-adv-x="407" />
<glyph unicode="&#x2030;" horiz-adv-x="1863" d="M184 999q0 188 90 312q92 127 242 127q168 0 168 -232q0 -152 -84 -297q-82 -143 -219 -143q-113 0 -156 57q-41 55 -41 176zM213 0l791 1536h147l-791 -1536h-147zM332 975q0 -133 55 -133q76 0 125 116.5t49 278.5q0 129 -51 129t-107 -84q-59 -88 -67 -219 q-4 -65 -4 -88zM692 233q0 188 90 312q92 127 242 127q92 0 139 -60q49 -61 49 -172q0 -70 -18 -143q-18 -76 -53 -141q-35 -68 -103 -113q-63 -43 -149 -43q-113 0 -156 57q-41 55 -41 176zM829 209q0 -133 56 -133q77 0 123 110q45 109 45 271q0 139 -58 139 q-47 0 -98 -82q-51 -84 -63 -217q-5 -65 -5 -88zM1282 233q0 188 90 312q92 127 242 127q92 0 139 -60q49 -61 49 -172q0 -70 -18 -143q-16 -68 -55 -141q-37 -70 -100.5 -113t-149.5 -43q-113 0 -156 57q-41 55 -41 176zM1419 209q0 -133 56 -133q80 0 122 110 q45 117 45 271q0 139 -57 139q-49 0 -100 -82q-49 -80 -62 -217q-4 -65 -4 -88z" />
<glyph unicode="&#x2039;" horiz-adv-x="733" d="M41 487l18 84l629 349l-20 -113l-494 -287l397 -237l-24 -117z" />
<glyph unicode="&#x203a;" horiz-adv-x="702" d="M31 166l28 117l492 237l-397 287l18 113l504 -349l-23 -110z" />
<glyph unicode="&#x205f;" horiz-adv-x="512" />
<glyph unicode="&#x20ac;" horiz-adv-x="1171" d="M-6 582l29 102h151q2 31 16 133h-145l29 103h137q66 274 221 446q156 170 426 170q154 0 256 -68q100 -68 100 -206q0 -188 -143 -189q-70 0 -117 53q34 9 62 68q29 61 28 100q0 25 -6 54q-6 31 -40.5 61.5t-94.5 30.5q-123 0 -221 -148q-94 -139 -147 -372h413l-28 -103 h-408q-12 -63 -16 -133h401l-29 -102h-379v-27q0 -211 55.5 -297t215.5 -86q119 0 186 18q70 18 129 64l4 -59q-90 -115 -198 -160q-113 -47 -265 -47q-86 0 -159 24q-78 27 -142 78q-68 55 -106 162q-41 111 -41 258v72h-174z" />
<glyph unicode="&#x2122;" horiz-adv-x="774" d="M-47 1188q0 70 51 115t158 45q27 0 63 -5q55 -6 90 -6q57 0 76 11l-1 -5q-1 -4 -2 -11t-3 -13q-6 -25 -16 -39q-8 -12 -27 -12q-25 0 -66 8l-57 10l-86 -399h-88l88 407q-123 -4 -123 -125q0 -18 8 -41q-65 1 -65 60zM305 887l139 430l84 12v-346l136 356h96l-78 -452 h-88l55 319l-129 -319h-84v268l-82 -268h-49z" />
<glyph unicode="&#x2212;" horiz-adv-x="907" d="M39 455l37 161h717l-35 -161h-719z" />
<glyph unicode="&#xe000;" horiz-adv-x="1075" d="M0 1075h1075v-1075h-1075v1075z" />
<glyph horiz-adv-x="1505" d="M23 801q0 55 40.5 96t100.5 59q49 14 112 23q49 6 101 6q152 0 299 -49q166 264 356 434q186 168 352 168q90 0 164 -31l-162 -757l95 12l-15 -74l-96 -10l-143 -678h-295l137 649q-197 -18 -354 -26q-166 -451 -166 -740q0 -27 4 -59q4 -27 8 -31l12 -12q4 -4 5 -12 q-59 4 -84 6q-33 4 -72 14q-41 10 -64 37q-23 25 -39 65q-16 39 -16 107q0 221 193 614h-105q-180 0 -274 57.5t-94 131.5zM197 819q0 -45 69.5 -79.5t192.5 -34.5h82q49 92 104 184q-106 33 -192 33q-123 0 -189 -27q-67 -27 -67 -76zM748 707q144 3 294 12 q-121 66 -241 115zM821 877q141 -72 244 -132l20 -12l142 664q-205 -90 -406 -520z" />
<glyph horiz-adv-x="1206" d="M16 -2q0 143 103 403q98 248 254 510q150 250 352 441q199 186 373 186q90 0 164 -31l-322 -1507h-295l158 750h-324q-100 -240 -157 -474q-59 -244 -60 -393q0 -27 4 -59q2 -23 10 -31q2 -2 5.5 -6t5.5 -6q4 -4 4 -12q-59 4 -84 6q-33 4 -72 14q-43 12 -65 37 q-18 20 -37 65q-17 39 -17 107zM524 856h301l115 541q-211 -92 -416 -541z" />
<glyph horiz-adv-x="1308" d="M12 1004q0 201 229.5 366.5t489.5 165.5q227 0 346 -94t119 -234q0 -90 -55 -180q-55 -88 -150 -143q231 -43 232 -307q0 -217 -147.5 -426t-334.5 -209q-129 0 -241 118l-13 -61h-294l278 1303l303 40l-98 -454h14q121 0 207 106q84 104 84 232q0 92 -57 155 q-53 59 -168 60q-250 0 -401.5 -133t-151.5 -365q0 -45 6 -76q6 -33 14 -45q8 -14 8 -18q-109 0 -165 47q-54 46 -54 152zM528 190q63 -59 123 -59q104 0 186.5 143.5t82.5 296.5q0 98 -39 158q-40 61 -123 62q-47 0 -103 -7z" />
<glyph horiz-adv-x="1132" d="M18 1004q0 109 39 198q39 92 119 168q84 80 219 123q137 43 322 43q37 0 153.5 -12.5t186.5 -12.5q111 0 184 25q-8 -25 -16 -53q-14 -47 -21 -62q-16 -33 -28 -53q-18 -31 -52 -49q-39 -20 -77 -29q-106 0 -287 39l-101 -471h316l-41 -151h-307l-105 -490h457l-43 -217 h-756l295 1368q-131 -6 -199 -100q-68 -96 -67 -324q0 -45 6 -76q6 -33 14 -45q8 -14 9 -18q-109 0 -166 47q-54 46 -54 152z" />
<glyph horiz-adv-x="1648" d="M23 -2q0 143 96 403q98 268 237 510q145 254 338 440.5t365 186.5q57 0 137 -29q-61 -188 -137 -321q158 225 244 289q82 61 223 61q90 0 164 -31l-336 -1591q-145 0 -199 33q-55 35 -55 131q0 46 18 123l238 1130q-147 -160 -312 -524q-162 -360 -161 -483q0 -12 2 -17 q-119 6 -172.5 51.5t-53.5 143.5q0 188 261 796q-137 -57 -293 -323q-160 -270 -258 -578q-100 -309 -101 -516q0 -27 4 -59q4 -27 9 -31l12 -12q4 -4 4 -12q-59 4 -84 6q-33 4 -72 14q-43 12 -65 37q-14 16 -35 65q-18 44 -18 107z" />
<glyph horiz-adv-x="1519" d="M43 0l324 1534q139 0 194 -31q57 -33 57 -123q0 -41 -16 -133l-213 -1011q162 127 293 399q133 276 133 502q178 0 178 -291q0 -162 -55 -359q-55 -199 -119 -303q135 55 248 285q117 238 174 479q59 250 80 471v11q0 41 -6 63q-6 20 -14.5 28.5t-8.5 12.5q59 -4 84 -6 q33 -4 72 -15q43 -12 65 -36q18 -20 37 -66q16 -39 17 -106q0 -113 -41 -287q-39 -168 -121 -352q-78 -176 -182 -338q-100 -156 -238 -258q-133 -100 -274 -101q-25 0 -33 2q-16 4 -29 11q-29 14 -35 16q14 66 67.5 205t74.5 241q-285 -475 -498 -475q-132 0 -215 31z" />
<glyph horiz-adv-x="978" d="M-37 247.5q0 106.5 17 217.5q14 100 55 207q39 102 98 180q58 77 154 123q98 47 213 47q78 0 137 -51l12 53h293l-147 -696q-10 -45 -11 -70q0 -76 74 -76q39 0 53 6q-29 -84 -67 -127q-41 -45 -70 -53q-27 -8 -76 -8q-170 0 -202 156q-123 -168 -279 -168 q-137 0 -194 75q-60 78 -60 184.5zM240 303q0 -145 118 -145q59 0 134 104q0 25 10 66l114 542q-43 37 -100 37q-113 0 -194 -192q-82 -191 -82 -412z" />
<glyph horiz-adv-x="1718" d="M-37 247.5q0 106.5 17 217.5q14 100 55 207q39 102 98 180q58 77 154 123q98 47 213 47q78 0 137 -51l12 53h293l-145 -696q-10 -57 -11 -76q0 -66 64 -66q35 0 86 76q0 123 45 193q47 74 111 75q74 139 145 469l297 62v-29q0 -135 39 -262q35 -115 74 -217 q37 -98 36 -197q0 -156 -100 -256t-297 -100q-139 0 -227 39q-80 35 -109 123q-125 -162 -207 -162q-209 0 -245 160q-123 -172 -281 -172q-137 0 -194 75q-60 78 -60 184.5zM240 303q0 -145 118 -145q59 0 134 104q0 25 10 66l114 542q-43 37 -100 37q-113 0 -194 -192 q-82 -191 -82 -412zM1038 260q0 -59 56 -100q53 -39 120 -39q59 0 114.5 67.5t55.5 176.5q0 45 -47 198q-47 152 -49 293q0 -2 -5 -18.5t-14 -50t-22 -72.5q-35 -117 -65 -193q68 -23 67 -114q-4 -59 -41 -95q-41 -37 -94 -37q-37 0 -72 17q-4 -29 -4 -33z" />
<glyph horiz-adv-x="999" d="M-37 247.5q0 106.5 17 217.5q14 100 55 207q39 102 98 180q58 77 154 123q98 47 213 47q78 0 137 -51l12 53h293l-147 -696q-10 -45 -11 -70q0 -76 74 -76q39 0 53 6q-29 -84 -67 -127q-41 -45 -70 -53q-27 -8 -76 -8q-170 0 -202 156q-123 -168 -279 -168 q-137 0 -194 75q-60 78 -60 184.5zM240 303q0 -145 118 -145q59 0 134 104q0 25 10 66l114 542q-43 37 -100 37q-113 0 -194 -192q-82 -191 -82 -412zM496 1149l186 387h215l-248 -387h-153z" />
<glyph horiz-adv-x="409" d="M170 1149l125 387h215l-186 -387h-154z" />
<glyph horiz-adv-x="1720" d="M-37 247.5q0 106.5 17 217.5q14 100 55 207q39 102 98 180q58 77 154 123q98 47 213 47q78 0 137 -51l12 53h293l-145 -696q-10 -57 -11 -76q0 -66 64 -66q35 0 86 76q0 123 45 193q47 74 111 75q74 139 145 469l297 62v-29q0 -135 39 -262q35 -115 74 -217 q37 -98 36 -197q0 -156 -100 -256t-297 -100q-139 0 -227 39q-80 35 -109 123q-125 -162 -207 -162q-209 0 -245 160q-123 -172 -281 -172q-137 0 -194 75q-60 78 -60 184.5zM240 303q0 -145 118 -145q59 0 134 104q0 25 10 66l114 542q-43 37 -100 37q-113 0 -194 -192 q-82 -191 -82 -412zM496 1149l186 387h215l-248 -387h-153zM1038 260q0 -59 56 -100q53 -39 120 -39q59 0 114.5 67.5t55.5 176.5q0 45 -47 198q-47 152 -49 293q0 -2 -5 -18.5t-14 -50t-22 -72.5q-35 -117 -65 -193q68 -23 67 -114q-4 -59 -41 -95q-41 -37 -94 -37 q-37 0 -72 17q-4 -29 -4 -33z" />
<glyph horiz-adv-x="1574" d="M-37 227q0 45 12 101l228 1065l303 41l-98 -465q82 59 176 59q137 0 198.5 -78t61.5 -182q0 -51 -8 -127q164 129 286 348l277 62v-37q0 -143 33 -254q47 -162 65 -211q33 -92 33 -193q0 -162 -88 -258q-89 -98 -283 -98q-319 0 -319 227q0 154 75 228q80 76 140 75 q106 0 106 -122q0 -55 -45 -100.5t-100 -45.5q-41 0 -72 25q-6 -20 -6 -41q0 -58 43 -92q41 -33 117 -33q57 0 106 67q51 70 51 174q0 51 -38 199q-40 151 -43 295q-68 -90 -162 -182q-101 -98 -203 -172q-59 -219 -186 -363q-129 -145 -322 -145q-338 0 -338 233zM254 215 q0 -47 20.5 -61.5t69.5 -14.5q72 0 129 100.5t98 247.5q-27 25 -26 66q0 84 63 129q6 43 6 72q0 84 -34 118q-33 33 -82 33q-23 0 -58 -8q-37 -8 -53 -20l-117 -549q-16 -82 -16 -113z" />
<glyph horiz-adv-x="735" d="M-27 336q0 88 17 186q16 96 55 187q41 94 98.5 163.5t149.5 112.5q96 45 207 45q225 0 225 -141q0 -31 -10 -68h-117q10 41 10 58q0 70 -76 69q-119 0 -200 -184q-82 -182 -82 -371q0 -219 147.5 -219t286.5 121q0 -135 -109 -215q-108 -80 -301 -80q-137 0 -219 82 t-82 254z" />
<glyph horiz-adv-x="735" d="M-27 336q0 88 17 186q16 96 55 187q41 94 98.5 163.5t149.5 112.5q96 45 207 45q225 0 225 -141q0 -84 -43 -146q-45 -63 -115 -63q-45 0 -71.5 26.5t-26.5 65.5q0 55 37 102q37 45 90 50q-23 25 -64 24q-119 0 -200 -184q-82 -182 -82 -371q0 -102 31 -162 q31 -57 118 -57q184 0 357 193h69q-31 -37 -59 -78q-33 -47 -84 -103q-33 -37 -98 -88q-61 -49 -144 -73q-84 -25 -186 -25q-281 0 -281 336z" />
<glyph horiz-adv-x="860" d="M102 1149l435 387h43l122 -387h-65l-123 164l-321 -164h-91z" />
<glyph horiz-adv-x="956" d="M-37 247.5q0 106.5 17 217.5q14 100 55 207q39 102 98 180q58 77 154 123q98 47 213 47q74 0 137 -51l90 422l301 41l-235 -1106q-10 -45 -11 -70q0 -76 74 -76q37 0 53 6q-29 -84 -67 -127q-41 -45 -70 -53q-27 -8 -76 -8q-169 0 -202 154q-120 -166 -277 -166 q-137 0 -194 75q-60 78 -60 184.5zM240 303q0 -145 118 -145q59 0 129 100q4 45 13 70l116 544q-45 35 -100 35q-113 0 -194 -192q-82 -191 -82 -412z" />
<glyph horiz-adv-x="507" d="M-6 225q0 47 12 103l148 696h292l-147 -696q-10 -45 -10 -70q0 -76 73 -76q35 0 54 6q-29 -84 -68 -127q-41 -45 -69 -53q-27 -8 -76 -8q-104 0 -156 61q-53 64 -53 164z" />
<glyph horiz-adv-x="727" d="M-53 326q0 109 24 223q27 121 76 231q51 117 152 189q100 74 231 73q262 0 262 -213q0 -174 -147 -284q-150 -113 -316 -133q-6 -49 -6 -88q0 -176 148 -177q119 0 262 132q0 -279 -383 -279q-141 0 -221 92q-82 95 -82 234zM246 510q135 3 227 98q92 96 96 211 q0 115 -71 115q-52 0 -105 -68q-55 -70 -90 -159q-34 -86 -57 -197z" />
<glyph horiz-adv-x="1384" d="M-37 326q0 109 25 223q27 121 75 231q51 117 152 189q100 74 231 73q262 0 263 -213q0 -176 -146 -284q-150 -113 -317 -133q-6 -49 -6 -88q0 -90 49 -133.5t119 -43.5q114 0 208 154q10 104 52 164q43 63 104 65q74 139 146 469l296 62v-29q0 -143 37 -262 q27 -84 76 -217q37 -98 37 -197q0 -156 -100.5 -256t-296.5 -100q-150 0 -236 41q-82 39 -106 139q-141 -180 -359 -180q-143 0 -223 92.5t-80 233.5zM262 510q137 4 230 98q90 94 94 211q0 115 -72 115q-55 0 -106 -68q-49 -66 -89 -159q-34 -86 -57 -197zM721 295 q0 -174 174 -174q59 0 114.5 67.5t55.5 176.5q0 45 -47 198q-47 152 -49 293q0 -2 -5.5 -18.5t-14.5 -50t-21 -72.5q-43 -143 -66 -193q68 -23 68 -114q-4 -59 -41 -95q-41 -37 -94 -37q-37 1 -74 19z" />
<glyph horiz-adv-x="1476" d="M-27 326q0 109 25 223q27 121 76 231q51 117 151 189q102 74 232 73q262 0 262 -213q0 -176 -146 -284q-150 -113 -317 -133q-6 -49 -6 -88q0 -94 49 -134q51 -41 119 -40q213 0 524 274l-162 600h297l94 -365q135 162 152 252q-33 -4 -35 -4q-96 0 -96 115q0 49 39 74 q43 27 100 26q49 0 86 -36.5t37 -106.5q0 -158 -252 -440l72 -275q20 -80 57 -137q33 -51 74 -51q16 0 31 8q-43 -137 -181 -137q-117 0 -168 63q-49 61 -102 254l-14 51q-377 -313 -695 -313q-143 0 -223 92.5t-80 231.5zM272 510q135 3 228 98q92 96 96 211q0 115 -72 115 q-52 0 -104 -68q-49 -66 -88 -159q-40 -99 -60 -197z" />
<glyph horiz-adv-x="755" d="M-70 326q0 109 25 223q27 121 76 231q51 117 151 189q100 74 232 73q262 0 262 -213q0 -176 -146 -284q-150 -113 -317 -133q-6 -49 -6 -88q0 -176 147 -177q119 0 262 132q0 -279 -383 -279q-143 0 -223 92.5t-80 233.5zM229 510q135 3 228 98q92 96 96 211 q0 115 -72 115q-52 0 -104 -68q-49 -66 -88 -159q-40 -99 -60 -197zM440 1149l187 387h215l-248 -387h-154z" />
<glyph horiz-adv-x="1392" d="M-37 326q0 109 25 223q27 121 75 231q51 117 152 189q100 74 231 73q262 0 263 -213q0 -176 -146 -284q-150 -113 -317 -133q-6 -49 -6 -88q0 -90 49 -133.5t119 -43.5q106 0 200 140q4 109 47 174q45 68 109 69q74 139 145 469l297 62v-29q0 -143 37 -262 q27 -84 76 -217q37 -98 37 -197q0 -156 -100.5 -256t-297.5 -100q-147 0 -233 41q-82 39 -107 131q-141 -172 -352 -172q-143 0 -223 92.5t-80 233.5zM262 510q137 4 230 98q90 94 94 211q0 115 -72 115q-55 0 -106 -68q-49 -66 -89 -159q-34 -86 -57 -197zM496 1149 l186 387h215l-248 -387h-153zM713 295q0 -174 174 -174q59 0 114.5 67.5t55.5 176.5q0 45 -47 198q-47 152 -49 293q0 -2 -5.5 -18.5t-14.5 -50t-21 -72.5q-43 -143 -66 -193q68 -23 68 -114q-4 -59 -41 -95q-41 -37 -95 -37q-36 1 -73 19z" />
<glyph horiz-adv-x="1097" d="M-412 -291q0 127 86 189q90 63 269 118l245 1170q20 98 76 176q53 76 123 108q72 35 131 50q57 14 121 14q416 0 416 -250q0 -66 -47 -108q-46 -43 -99 -43q-68 0 -104 24q-35 23 -35 86q0 43 18.5 74t42.5 31q14 0 19 -2q-2 70 -111 69q-92 0 -161 -67q-68 -66 -91 -156 l-34 -168h206l-16 -82h-207l-233 -1106q-74 -348 -373 -348q-96 0 -170 63q-72 62 -72 158zM-299 -262q0 -25 25 -45q27 -23 57 -23q37 0 70 37q31 35 51 123l24 119q-115 -39 -168 -84q-59 -49 -59 -127zM569 225q0 47 13 103l147 696h293l-148 -696q-10 -45 -10 -70 q0 -76 74 -76q37 0 53 6q-29 -84 -67 -127q-41 -45 -70 -53q-27 -8 -76 -8q-106 0 -157 61q-52 60 -52 164z" />
<glyph horiz-adv-x="1161" d="M-395 -291q0 125 88 189q92 66 266 118l246 1170q74 348 373 348q80 0 186 -23q88 -18 170 -47q41 -14 186 -71l-227 -1065q-10 -45 -10 -70q0 -76 73 -76q35 0 54 6q-29 -84 -68 -127q-41 -45 -70 -53q-27 -8 -75 -8q-104 0 -156 61q-53 63 -53 164q0 47 12 103 l221 1044q-74 33 -168 33q-106 0 -139 -162l-45 -219h190l-16 -82h-190l-234 -1106q-74 -348 -373 -348q-96 0 -170 63q-71 62 -71 158zM-283 -262q0 -25 25 -45q27 -23 57 -23q37 0 72 37q33 37 49 123l25 119q-115 -39 -168 -84q-60 -49 -60 -127z" />
<glyph horiz-adv-x="1607" d="M-414 -291q0 127 86 189q90 63 269 118l245 1170q74 348 373 348q100 0 170 -61q72 -61 72 -160q0 -47 -6 -84h-97q4 53 4 55q0 33 -22 51q-20 18 -55 19q-102 0 -140 -162l-36 -168h563l-150 -696q-10 -41 -10 -66q0 -76 102 -76q53 0 146 74q0 23 10 68l147 696h293 l-147 -696q-10 -45 -10 -70q0 -76 73 -76q35 0 54 6q-29 -84 -68 -127q-41 -45 -70 -53q-27 -8 -75 -8q-176 0 -205 172q-184 -172 -293 -172q-254 0 -254 223q0 46 12 105l121 590h-260l-227 -1082q-74 -348 -373 -348q-96 0 -170 63q-72 62 -72 158zM-301 -262 q0 -25 25 -45q27 -23 57 -23q35 0 69 37q31 35 52 123l24 119q-115 -39 -168 -84q-59 -49 -59 -127z" />
<glyph horiz-adv-x="962" d="M-51 248q0 98 14 190q18 113 49 205q35 102 92 188q51 76 146 136q90 55 205 55q109 0 163 -96l21 98h297l-250 -1188q-74 -348 -373 -348q-96 0 -170 63q-72 61 -71 158q0 49 20 94q18 39 43 64q23 23 78 45q39 16 90 29q14 4 53 11t58 11l24 111q-106 -86 -235 -86 q-137 0 -195 75q-59 79 -59 185zM184 -262q0 -25 25 -45q27 -23 57 -23q86 0 121 160l14 68q-117 -23 -165 -52q-52 -30 -52 -108zM201 287q0 -129 149 -129q51 0 119 67l127 594q-45 88 -119 88q-72 0 -127 -71.5t-86 -173.5q-33 -113 -47 -203q-16 -104 -16 -172z" />
<glyph horiz-adv-x="995" d="M-90 0l297 1393l303 41l-111 -521q150 111 269 111q88 0 161.5 -80t73.5 -180q0 -25 -4 -45l-84 -391q-16 -76 -16 -84q0 -61 78 -62q37 0 53 6q-29 -84 -68 -127q-41 -45 -69 -53q-27 -8 -76 -8q-102 0 -156 61q-53 63 -53 164q0 47 12 103l78 368q4 37 4 47 q0 53 -24.5 90t-67.5 37q-72 0 -129 -45l-176 -825h-295z" />
<glyph horiz-adv-x="507" d="M-6 225q0 47 12 103l148 696h292l-147 -696q-10 -45 -10 -70q0 -76 73 -76q35 0 54 6q-29 -84 -68 -127q-41 -45 -69 -53q-27 -8 -76 -8q-104 0 -156 61q-53 64 -53 164zM180 1294q0 63 47 115q47 49 115 49t117 -49q47 -47 47 -115q0 -70 -47 -114q-51 -47 -117 -47 q-68 0 -115 46.5t-47 114.5z" />
<glyph horiz-adv-x="985" d="M-63 0l217 1024h292l-217 -1024h-292zM94 -291q0 129 88 191q98 68 267 116l213 1008h296l-249 -1188q-74 -348 -373 -348q-96 0 -170 63q-72 62 -72 158zM180 1294q0 63 47 115q47 49 115 49t117 -49q47 -47 47 -115q0 -70 -47 -114q-51 -47 -117 -47q-68 0 -115 46.5 t-47 114.5zM207 -262q0 -25 24 -45q27 -23 58 -23q39 0 71 37q29 31 50 123l24 121q-227 -78 -227 -213zM694 1298q0 63 47 115q45 49 115 49q68 0 117 -49q47 -47 47 -115q0 -70 -47 -114q-51 -47 -117 -47q-68 0 -115 46.5t-47 114.5z" />
<glyph horiz-adv-x="1239" d="M-12 223q0 46 12 105l145 696h297l-147 -696q-16 -76 -16 -103q0 -59 53 -59q49 0 110 96q0 123 45 193q47 74 111 75q74 139 145 469l297 62v-29q0 -123 23 -215q25 -100 51 -160q29 -63 53 -143q23 -74 23 -158q0 -156 -100.5 -256t-296.5 -100q-145 0 -229.5 37 t-108.5 125q-119 -162 -213 -162q-254 0 -254 223zM180 1294q0 63 47 115q47 49 115 49t117 -49q47 -47 47 -115q0 -70 -47 -114q-51 -47 -117 -47q-68 0 -115 46.5t-47 114.5zM547 293q0 -172 174 -172q59 0 114.5 67.5t55.5 176.5q0 45 -47 198q-47 152 -49 293 q0 -2 -5.5 -18.5t-14.5 -50t-21 -72.5q-43 -143 -66 -193q68 -23 68 -114q-4 -59 -41 -95q-39 -37 -94 -37q-43 1 -74 17z" />
<glyph horiz-adv-x="514" d="M-6 225q0 47 12 103l148 696h292l-147 -696q-10 -45 -10 -70q0 -76 73 -76q35 0 54 6q-29 -84 -68 -127q-41 -45 -69 -53q-27 -8 -76 -8q-104 0 -156 61q-53 64 -53 164zM236 1149l186 387h215l-248 -387h-153z" />
<glyph horiz-adv-x="1226" d="M-12 223q0 46 12 105l145 696h297l-147 -696q-6 -29 -12.5 -57.5t-8.5 -40t-2 -13.5q0 -51 56 -51q51 0 114 100q0 119 45 189q47 74 111 75q74 139 145 469l297 62v-29q0 -123 23 -215q25 -100 51 -160q29 -63 53 -143q23 -74 23 -158q0 -156 -100.5 -256t-296.5 -100 q-145 0 -229.5 37t-108.5 125q-119 -162 -213 -162q-254 0 -254 223zM236 1149l186 387h215l-248 -387h-153zM547 293q0 -172 174 -172q59 0 114.5 67.5t55.5 176.5q0 45 -47 198q-47 152 -49 293q0 -2 -5.5 -18.5t-14.5 -50t-21 -72.5q-43 -143 -66 -193q68 -23 68 -114 q-4 -59 -41 -95q-39 -37 -94 -37q-43 1 -74 17z" />
<glyph horiz-adv-x="483" d="M-457 -291q0 129 88 191q98 68 269 116l211 1008h297l-250 -1188q-74 -348 -373 -348q-96 0 -170 63q-72 62 -72 158zM-344 -262q0 -25 25 -45q27 -23 57 -23q86 0 121 160l26 121q-109 -37 -170 -86q-59 -47 -59 -127zM143 1298q0 63 47 115q47 49 115 49t117 -49 q47 -47 47 -115q0 -70 -47 -114q-51 -47 -117 -47q-68 0 -115 46.5t-47 114.5z" />
<glyph horiz-adv-x="991" d="M-84 0l297 1393l303 41l-151 -715l251 199q25 18 49.5 37.5l39 30.5t26.5 21.5t18 13.5l5 3h221l-408 -276q45 4 47 4q86 0 162 -80q76 -78 76 -178q0 -23 -6 -48l-27 -118q-16 -82 -16 -86q0 -59 78 -60q37 0 53 6q-29 -84 -68 -127q-41 -45 -69 -53q-27 -8 -76 -8 q-102 0 -156 61q-53 63 -53 164q0 47 12 103l21 96q4 37 4 47q0 57 -23 90q-25 37 -69 37q-66 0 -127 -43l-119 -555h-295z" />
<glyph horiz-adv-x="999" d="M-84 0l297 1393l303 41l-147 -695q268 217 329 256q66 41 142 41q39 0 59.5 -34.5t20.5 -67.5q0 -45 -45.5 -84t-88.5 -39q-16 0 -32 10q-27 16 -58 17q-72 0 -243 -136q90 47 163 48q84 0 162 -78q76 -76 76 -176q0 -27 -6 -52l-29 -116q-10 -41 -10 -66q0 -76 102 -76 q35 0 74 29q37 28 86 80q45 47 76 72h70q-27 -27 -87 -95l-116 -127q-47 -51 -121 -98q-72 -47 -127 -47q-121 0 -188.5 55.5t-67.5 163.5q0 57 14 109l23 94q6 29 6 53q0 55 -26.5 88t-67.5 33q-66 0 -131 -45l-117 -551h-295z" />
<glyph horiz-adv-x="563" d="M-10 225q0 47 12 103l225 1065l303 41l-235 -1106q-10 -45 -10 -70q0 -76 73 -76q35 0 54 6q-29 -84 -68 -127q-41 -45 -70 -53q-27 -8 -75 -8q-104 0 -156 61q-53 64 -53 164z" />
<glyph horiz-adv-x="1439" d="M-88 0l217 1024h295l-23 -109q152 109 265 109q55 0 110 -37q57 -39 90 -94q174 131 297 131q86 0 160 -78q76 -80 76 -180q0 -2 -4 -47q0 -4 -52 -238q-47 -217 -47 -235q0 -63 76 -64q37 0 53 6q-29 -84 -67 -127q-41 -45 -70 -53q-27 -8 -76 -8q-209 0 -208 223 q0 46 12 105l78 368q6 29 6 54q0 55 -26.5 87.5t-67.5 32.5q-55 0 -115 -34q10 -45 10 -74q0 -6 -4 -43l-152 -719h-296l147 696q6 29 6 54q0 55 -26.5 87.5t-67.5 32.5q-63 0 -125 -43l-176 -827h-295z" />
<glyph horiz-adv-x="989" d="M-74 0l217 1024h295l-24 -111q152 111 268 111q88 0 162 -78t74 -180q0 -25 -5 -47q0 -4 -51 -238q-47 -217 -47 -235q0 -63 76 -64q39 0 53 6q-29 -84 -67 -127q-41 -45 -70 -53q-27 -8 -76 -8q-209 0 -209 223q0 46 13 105l77 368q6 29 6 54q0 55 -26.5 87.5 t-67.5 32.5q-65 0 -129 -43l-174 -827h-295z" />
<glyph horiz-adv-x="878" d="M-14 324q0 354 155 536q158 184 383 184q80 0 135 -26q57 -27 58 -66q0 -68 -92 -98q-27 70 -93 70q-74 0 -126 -66q-57 -70 -87 -164q-29 -92 -45 -190t-16 -162q0 -156 143 -156q84 0 139.5 123t73.5 287q-57 12 -57 84q0 52 43 104q43 51 94 52q70 0 70 -56 q0 -14 -2 -18q33 20 43 31q18 18 39 45l21 25l16 20l20 -41q-45 -160 -137 -217q-14 -293 -156 -467q-138 -172 -301 -172q-168 0 -244 77q-77 83 -77 261z" />
<glyph horiz-adv-x="1501" d="M-14 324q0 354 155 538q154 182 383 182q238 0 248 -296q14 -8 39 -9q46 0 86 19q43 20 74 53q39 43 55 66l51 81l17.5 27.5l15.5 26t10 16.5l223 45q0 -162 33 -285q25 -94 70 -227q33 -98 33 -201q0 -152 -109 -256q-108 -104 -307 -104q-274 0 -275 279q0 96 68 157.5 t158 61.5q96 0 96 -146q0 -43 -45 -82t-94 -39q-59 0 -86 52q-8 -25 -8 -43q0 -47 38.5 -78t114.5 -31q178 0 178 236q0 43 -34 200q-35 154 -37 289q-37 -37 -80 -88t-72 -76l-57 -49q-39 -33 -76 -45q-18 -6 -88 -23q-35 -285 -166 -434q-135 -154 -299 -153 q-166 0 -240 78q-73 77 -73 258zM258 342q0 -88 35 -121q39 -35 102 -35q59 0 106.5 59.5t73.5 143.5q27 82 39 193q-45 0 -65.5 26.5t-20.5 65.5q0 45 25 88q23 39 65 55q-8 106 -86 107q-70 0 -122 -66q-59 -74 -88 -164q-33 -104 -48 -190q-16 -99 -16 -162z" />
<glyph horiz-adv-x="907" d="M-4 324q0 354 156 536q156 184 383 184q80 0 135 -26q57 -27 57 -66q0 -68 -92 -98q-27 70 -92 70q-74 0 -127 -66q-57 -70 -86 -164q-33 -104 -47.5 -190t-14.5 -162q0 -156 144 -156q84 0 139 123t74 287q-57 12 -58 84q0 52 43 104q43 51 95 52q70 0 69 -56 q0 -14 -2 -18q27 16 41 31q27 27 41 45l21.5 25t15.5 20l20 -41q-45 -160 -137 -217q-14 -293 -156 -467q-138 -172 -301 -172q-168 0 -243 77q-78 83 -78 261zM500 1149l186 387h215l-248 -387h-153z" />
<glyph horiz-adv-x="1505" d="M-14 324q0 354 155 538q154 182 383 182q238 0 248 -296q14 -8 39 -9q46 0 86 19q43 20 74 53q39 43 55 66l51 81l17.5 27.5l15.5 26t10 16.5l223 45q0 -162 33 -285q25 -94 70 -227q33 -98 33 -201q0 -152 -109 -256q-108 -104 -307 -104q-274 0 -275 279q0 96 68 157.5 t158 61.5q96 0 96 -146q0 -43 -45 -82t-94 -39q-59 0 -86 52q0 -74 30.5 -117t118.5 -43q174 0 174 244q0 43 -34 200q-35 154 -37 289q-37 -37 -80 -88t-72 -76l-57 -49q-39 -33 -76 -45q-18 -6 -88 -23q-35 -285 -166 -434q-135 -154 -299 -153q-166 0 -240 78 q-73 77 -73 258zM258 342q0 -88 35 -121q39 -35 102 -35q59 0 106.5 59.5t73.5 143.5q27 82 39 193q-45 0 -65.5 26.5t-20.5 65.5q0 45 25 88q23 39 65 55q-8 106 -86 107q-70 0 -122 -66q-59 -74 -88 -164q-33 -104 -48 -190q-16 -99 -16 -162zM483 1149l187 387h215 l-248 -387h-154z" />
<glyph horiz-adv-x="776" d="M-18 268q0 117 45 187q47 74 110 75q74 139 146 469l297 62v-29q0 -135 38 -262q35 -115 74 -217q37 -98 37 -197q0 -156 -100.5 -256t-296.5 -100q-184 0 -266 61q-84 62 -84 207zM86 295q0 -174 174 -174q59 0 114.5 67.5t55.5 176.5q0 45 -47 198q-47 152 -49 293 q0 -2 -5 -18.5l-14.5 -50l-21.5 -72.5q-43 -143 -66 -193q68 -23 68 -114q-4 -59 -41 -95q-41 -37 -94 -37q-37 1 -74 19z" />
<glyph horiz-adv-x="585" d="M-4 221q0 51 12 107l131 614h-67l16 82h68l61 283l303 41l-69 -324h122l-16 -82h-123l-131 -614q-10 -45 -10 -72q0 -74 72 -74q37 0 53 6q-29 -84 -68 -127q-41 -43 -74 -53q-27 -8 -75 -8q-101 0 -154 61q-51 60 -51 160z" />
<glyph horiz-adv-x="989" d="M-27 223q0 46 13 105l143 696h301l-149 -696q-10 -41 -11 -66q0 -76 103 -76q53 0 145 74q0 23 10 68l148 696h293l-148 -696q-10 -45 -10 -70q0 -76 74 -76q37 0 53 6q-29 -84 -68 -127q-41 -45 -69 -53q-27 -8 -76 -8q-176 0 -205 172q-184 -172 -293 -172 q-254 0 -254 223z" />
<glyph horiz-adv-x="1003" d="M-27 223q0 46 13 105l143 696h301l-149 -696q-10 -41 -11 -66q0 -76 103 -76q53 0 145 74q0 23 10 68l148 696h293l-148 -696q-10 -45 -10 -70q0 -76 74 -76q37 0 53 6q-29 -84 -68 -127q-41 -45 -69 -53q-27 -8 -76 -8q-176 0 -205 172q-184 -172 -293 -172 q-254 0 -254 223zM489 1149l187 387h215l-248 -387h-154z" />
<glyph horiz-adv-x="745" d="M-109 180q109 74 263 232l-134 612h297l103 -481q80 72 139 162q55 86 59 157q-33 -4 -34 -4q-96 0 -97 115q0 49 39 74q43 27 101 26q53 0 83.5 -49t30.5 -123q0 -160 -299 -465l27 -119q2 -12 20 -73q6 -23 31 -41q23 -16 70 -17q51 0 137 68q-63 -254 -289 -254 q-133 0 -176 55q-41 53 -88 262l-2 7l-111 -95l-131 -110z" />
<glyph horiz-adv-x="1003" d="M-27 223q0 46 13 105l143 696h301l-149 -696q-10 -41 -11 -66q0 -76 103 -76q61 0 155 82l160 756h297l-250 -1188q-74 -348 -373 -348q-96 0 -169 63q-72 61 -72 158q0 129 88 191q98 68 266 116l31 142q-176 -158 -279 -158q-254 0 -254 223zM233 -262q0 -25 25 -45 q27 -23 57 -23q37 0 70 37q35 39 51 123l25 121q-228 -78 -228 -213z" />
</font>
</defs>
</svg>
